Торрент файл
скачать торрент магнет ссылка Добавлен: 19 мар 2017, 13:47
Размер: 1.46 ГБ
Сидеров: 47
Личеров: 12
Статус: (salma3)
Автор

СообщениеДобавлено: 19 мар 2017, 13:47 

Не в сети
Супермодератор
Аватара пользователя
Дата регистрации:
15 фев 2012, 16:44
Возраст: 29
Спасибо: 7428 / 2147
Сообщения: 80130
Режиссер: Леонид Гайдай
Жанр: комедия, драма
Продолжительность: 01:19:52
Год выпуска: 1962

В ролях: Ростислав Плятт, Георгий Вицин, Юрий Никулин, Алексей Смирнов, Сергей Тихонов, Александр Шворин, Георгий Милляр, Виктор Громов, Владимир Пицек, Виктор Уральский

Описание: Сборник короткометражных фильмов по новеллам О`Генри: «Дороги, которые мы выбираем», «Родственные души», «Вождь краснокожих».
Наибольшая популярность выпала на долю последней новеллы — столь уморительны оказались злоключения незадачливых похитителей юного сорванца.



Формат: DVDRip-AVC
Видео: 704x576@768x576 (4:3), 25 fps, AVC MPEG-4 (H.264), ~ 2166 kbps, 0.214 bit/pixel
Аудио: 48 kHz, AC3 Dolby Digital, 3/2 (L,C,R,l,r) + LFE ch, ~448 kbps

Общее
Уникальный идентификатор : 217525363060631534646554158264927451811 (0xA3A5DC6D0028EE83867657514170FAA3)
Полное имя : I:\Деловые.люди.1962.DVDRip-AVC.kvvk_2009.mkv
Формат : Matroska
Версия формата : Version 2
Размер файла : 1,46 Гбайт
Продолжительность : 1 ч. 19 м.
Общий поток : 2616 Кбит/сек
Дата кодирования : UTC 2014-10-14 01:32:38
Программа кодирования : mkvmerge v3.4.0 ('Rapunzel') built on May 15 2010 09:38:20
Библиотека кодирования : libebml v0.8.0 + libmatroska v0.9.0

Видео
Идентификатор : 1
Формат : AVC
Формат/Информация : Advanced Video Codec
Профиль формата :
Параметр CABAC формата : Да
Параметр ReFrames формата : 11 кадров
Идентификатор кодека : V_MPEG4/ISO/AVC
Продолжительность : 1 ч. 19 м.
Битрейт : 2166 Кбит/сек
Ширина : 704 пикселя
Высота : 576 пикселей
Соотношение сторон : 4:3
Частота кадров : 25,000 кадров/сек
Стандарт вещания : PAL
Цветовое пространство : YUV
Субдискретизация насыщенности : 4:2:0
Битовая глубина : 8 бит
Тип развёртки : Прогрессивная
Бит/(Пиксели*Кадры) : 0.214
Размер потока : 1,18 Гбайт (81%)
Библиотека кодирования : x264 core 142 r2431 ac76440
Настройки программы : cabac=1 / ref=11 / deblock=1:-2:-2 / analyse=0x3:0x113 / me=umh / subme=11 / psy=1 / psy_rd=1.00:0.15 / mixed_ref=1 / me_range=48 / chroma_me=1 / trellis=2 / 8x8dct=1 / cqm=0 / deadzone=21,11 / fast_pskip=1 / chroma_qp_offset=-3 / threads=6 / lookahead_threads=1 / sliced_threads=0 / nr=0 / decimate=0 / interlaced=0 / bluray_compat=0 / constrained_intra=0 / bframes=7 / b_pyramid=2 / b_adapt=2 / b_bias=0 / direct=3 / weightb=1 / open_gop=0 / weightp=2 / keyint=250 / keyint_min=25 / scenecut=40 / intra_refresh=0 / rc_lookahead=50 / rc=2pass / mbtree=0 / bitrate=2166 / ratetol=1.0 / qcomp=0.60 / qpmin=0 / qpmax=51 / qpstep=4 / cplxblur=20.0 / qblur=0.5 / vbv_maxrate=50000 / vbv_bufsize=62500 / nal_hrd=none / filler=0 / ip_ratio=1.40 / pb_ratio=1.30 / aq=1:0.90
Язык : English
Default : Нет
Forced : Нет

Аудио
Идентификатор : 2
Формат : AC-3
Формат/Информация : Audio Coding 3
Расширение режима : CM (complete main)
Идентификатор кодека : A_AC3
Продолжительность : 1 ч. 19 м.
Вид битрейта : Постоянный
Битрейт : 448 Кбит/сек
Каналы : 6 каналов
Расположение каналов : Front: L C R, Side: L R, LFE
Частота : 48,0 КГц
Битовая глубина : 16 бит
Метод сжатия : С потерями
Размер потока : 256 Мбайт (17%)
Заголовок : AC3 6ch @ 448kbps
Язык : Russian
Default : Да
Forced : Нет

Текст
Идентификатор : 3
Формат : UTF-8
Идентификатор кодека : S_TEXT/UTF8
Идентификатор кодека/Информация : UTF-8 Plain Text
Язык : Russian
Default : Нет
Forced : Нет

Меню
00:00:00.000 : :00:00:00.000
00:04:20.640 : :00:04:20.640
00:08:19.720 : :00:08:19.720
00:10:32.840 : :00:10:32.840
00:15:18.040 : :00:15:18.040
00:17:52.520 : :00:17:52.520
00:22:22.080 : :00:22:22.080
00:27:00.120 : :00:27:00.120
00:30:15.600 : :00:30:15.600
00:34:41.480 : :00:34:41.480
00:39:47.800 : :00:39:47.800
00:52:30.840 : :00:52:30.840
01:03:11.280 : :01:03:11.280
01:05:45.240 : :01:05:45.240
01:13:34.160 : :01:13:34.160
01:17:45.560 : :01:17:45.560





_________________
Проголосуй за трекер Открытый торрент трекер - RUS-MEDIA.ORG

Проголосуй Открытый торрент трекер - RUS-MEDIA.ORG


Вернуться к началу
 Профиль Отправить личное сообщение  
 
   Похожие торренты   Автор   Торрент   Размер 
В этой теме нет новых непрочитанных сообщений. Деловые люди [комедия, драма, 1962] DVDRip-AVC

salma3

22 | 15

715.27 МБ

В этой теме нет новых непрочитанных сообщений. Люди будут съедены / Mennesker bliver spist [Драма, комедия, 2015] DVDRip, avo

Dracon

215 | 16

1.46 ГБ

В этой теме нет новых непрочитанных сообщений. Дама с камелиями / La bella Lola [Драма, 1962] DVDRip-AVC, Mvo

salma3

47 | 5

2.09 ГБ

В этой теме нет новых непрочитанных сообщений. Королева Шантеклера / La Reina Del Chantecler [Драма, мелодрама, 1962] DVDRip-AVC, Dub

salma3

41 | 7

2.35 ГБ

В этой теме нет новых непрочитанных сообщений. Фальшивый предатель / The Counterfeit Traitor [триллер, драма, военный, 1962] DVDRip-AVC, Mvo

salma3

41 | 4

1.97 ГБ

В этой теме нет новых непрочитанных сообщений. Белые люди не умеют прыгать / White Men Can't Jump [Драма, комедия, спорт, 1992] BDRemux 1080p, Mvo

salma3

0 | 1

36.59 ГБ

В этой теме нет новых непрочитанных сообщений. Белые люди не умеют прыгать / White Men Can't Jump [Драма, комедия, спорт, 1992] BDRip 1080p, Mvo

salma3

0 | 0

13.08 ГБ


Начать новую тему Ответить на тему  [ 1 сообщение ] 




Для Мосгорсуда, Роскомнадзора и рекламодателей:: mosgorsud-torrent[собачка]yandex.ru
cron