Торрент файл
скачать торрент магнет ссылка Добавлен: 15 авг 2018, 11:00
Размер: 1.24 ГБ
Сидеров: 0
Личеров: 0
Статус: (salma3)
Автор

СообщениеДобавлено: 15 авг 2018, 11:00 

Не в сети
Супермодератор
Аватара пользователя
Дата регистрации:
15 фев 2012, 16:44
Возраст: 29
Спасибо: 7393 / 2147
Сообщения: 78044
Страна: СССР
Год выпуска: 1986
Жанр: Военный, Драма, Мелодрама
Продолжительность: 01:16:09
Режиссер: Наталия Трощенко
В ролях: Вера Глаголева, Александр Абдулов
Елена Попова, Юрий Беляев, Кирилл Алексеев, Олег Меленевский, Николай Иванов, Виктор Костецкий, Сергей Иванов, Л.Грищенко, Н.Клименко, Ю.Криливец

Описание:1942 год. В Аджимушкайских катакомбах под Керчью укрылись бойцы, прикрывавшие отход Красной армии. Вместе с ними - бегущие от врага мирные жители, госпитали с огромным количеством раненых, которых не удалось эвакуировать. Именно там Маша и Сергей познакомились и полюбили друг друга.
А как сложилась бы их дальнейшая жизнь, если бы судьбе было угодно пощадить их?

Релиз от:

Кодек: х264
Качество: SATRip-AVC
Видео: MPEG-4 AVC, 694x370@740x370, 25 fps, 2040 Кбит/с
Звук: AC3, 2 ch, 256 Кбит/с


    x264 [info]: frame I:679 Avg QP:18.08 size: 51826
    x264 [info]: frame P:45603 Avg QP:19.80 size: 18518
    x264 [info]: frame B:67814 Avg QP:21.65 size: 4571
Общее
Уникальный идентификатор : 237120173414093338237902661510516632896 (0xB263AF2A5465E007ABD1040E5296ED40)
Полное имя : D:Сошедшие с небес_1986-SATRip-AVC_KORSAR.mkv
Формат : Matroska
Версия формата : Version 2
Размер файла : 1,24 Гбайт
Продолжительность : 1 ч. 16 м.
Общий поток : 2343 Кбит/сек
Название фильма : Сошедшие с небес_1986-SATRip-AVC_KORSAR
Дата кодирования : UTC 2018-05-07 17:19:07
Программа кодирования : mkvmerge v5.8.0 ('No Sleep / Pillow') built on Sep 2 2012 15:37:04
Библиотека кодирования : libebml v1.2.3 + libmatroska v1.3.0

Видео
Идентификатор : 1
Формат : AVC
Формат/Информация : Advanced Video Codec
Профиль формата : High@L4.1
Параметр CABAC формата : Да
Параметр RefFrames формата : 14 кадров
Идентификатор кодека : V_MPEG4/ISO/AVC
Продолжительность : 1 ч. 16 м.
Битрейт : 2040 Кбит/сек
Ширина : 694 пикселя
Высота : 370 пикселей
Соотношение сторон : 2,000
Соотношение сторон в оригинале : 2,001
Режим частоты кадров : Постоянный
Частота кадров : 25,000 кадров/сек
Цветовое пространство : YUV
Субдискретизация насыщенности : 4:2:0
Битовая глубина : 8 бит
Тип развёртки : Прогрессивная
Бит/(Пиксели*Кадры) : 0.318
Размер потока : 1,08 Гбайт (87%)
Библиотека кодирования : x264 core 152 r2851kMod ba24899
Настройки программы : cabac=1 / ref=14 / deblock=1:-2:-1 / analyse=0x3:0x133 / me=umh / subme=10 / psy=1 / fade_compensate=0.00 / psy_rd=1.03:0.10 / mixed_ref=1 / me_range=32 / chroma_me=1 / trellis=2 / 8x8dct=1 / cqm=0 / deadzone=21,11 / fast_pskip=1 / chroma_qp_offset=-3 / threads=12 / lookahead_threads=2 / sliced_threads=0 / nr=0 / decimate=1 / interlaced=0 / bluray_compat=0 / constrained_intra=0 / bframes=10 / b_pyramid=2 / b_adapt=2 / b_bias=0 / direct=1 / weightb=1 / open_gop=0 / weightp=2 / keyint=250 / keyint_min=25 / scenecut=40 / intra_refresh=0 / rc=crf / mbtree=0 / crf=18.2000 / qcomp=0.63 / qpmin=0 / qpmax=39 / qpstep=4 / ip_ratio=1.40 / pb_ratio=1.30 / aq=1:1.00
Язык : English
Default : Да
Forced : Нет
Цветовой диапазон : Limited
Основные цвета : BT.601 PAL
Характеристики трансфера : BT.470 System B, BT.470 System G
Коэффициенты матрицы : BT.601

Аудио
Идентификатор : 2
Формат : AC-3
Формат/Информация : Audio Coding 3
Параметр Endianness формата : Big
Идентификатор кодека : A_AC3
Продолжительность : 1 ч. 16 м.
Вид битрейта : Постоянный
Битрейт : 256 Кбит/сек
Каналы : 2 канала
Расположение каналов : Front: L R
Частота : 48,0 КГц
Частота кадров : 31,250 кадров/сек (1536 SPF)
Битовая глубина : 16 бит
Метод сжатия : С потерями
Размер потока : 139 Мбайт (11%)
Язык : Russian
Default : Да
Forced : Нет



_________________
Проголосуй за трекер Открытый торрент трекер - RUS-MEDIA.ORG

Проголосуй Открытый торрент трекер - RUS-MEDIA.ORG


Вернуться к началу
 Профиль Отправить личное сообщение  
 
   Похожие торренты   Автор   Торрент   Размер 
В этой теме нет новых непрочитанных сообщений. Мы всегда говорим до свидания / Every Time We Say Goodbye [мелодрама, драма, военный, 1986] WEB-DL 1080p, Mvo

salma3

5 | 1

8.9 ГБ

В этой теме нет новых непрочитанных сообщений. Взвод / Platoon [боевик, драма, военный, 1986] BDRip 720p, Dvo

salma3

0 | 0

10.81 ГБ

В этой теме нет новых непрочитанных сообщений. Сальвадор / Salvador [Триллер, драма, военный, 1986] BDRip 1080p, Mvo

salma3

25 | 9

17.76 ГБ

В этой теме нет новых непрочитанных сообщений. Герои не плачут / Ying xiong wu lei [боевик, драма, военный, 1986] DVDRip, Avo

salma3

74 | 62

1.37 ГБ

В этой теме нет новых непрочитанных сообщений. Перевал разбитых сердец / Heartbreak Ridge [боевик, драма, военный, 1986] BDRip 720p, Mvo+Avo+Sub

salma3

60 | 41

7.3 ГБ

В этой теме нет новых непрочитанных сообщений. Перевал разбитых сердец / Heartbreak Ridge [боевик, драма, военный, 1986] BDRip 1080p, Mvo+Avo+Sub

salma3

3 | 7

19.23 ГБ

В этой теме нет новых непрочитанных сообщений. Перекресток / Crossroads [Драма, мелодрама, музыкальный, 1986] HDTVRip-AVC, Mvo

salma3

0 | 0

1.45 ГБ


Начать новую тему Ответить на тему  [ 1 сообщение ] 




Для Мосгорсуда, Роскомнадзора и рекламодателей:: mosgorsud-torrent[собачка]yandex.ru
cron