Торрент файл
скачать торрент магнет ссылка Добавлен: 15 авг 2018, 11:08
Размер: 1.49 ГБ
Сидеров: 0
Личеров: 0
Статус: (salma3)
Автор

СообщениеДобавлено: 15 авг 2018, 11:08 

Не в сети
Супермодератор
Аватара пользователя
Дата регистрации:
15 фев 2012, 16:44
Возраст: 29
Спасибо: 7400 / 2147
Сообщения: 78133
Год выпуска: 1984
Жанр: Музыкальный
Страна: СССР
Продолжительность: 1:10:35
Режиссер: Евгений Гинзбург
В ролях: Геннадий Хазанов(рассказчик), Луиза Кобаладзе, Гоча Лория, Темур Рцхиладзе, Манана Тодадзе, Теймураз Циклаури, Лили Цгваури

Описание: "Свадьба соек" - аллегорическая сказка грузинского классика Важа Пшавели, романтическая история любви из жизни пернатых, легла в основу одноименного мюзикла, написанного некогда популярным композитором Александром Басилая.Это замечательный музыкальный фильм в исполнении ансамбля "Иверия"! "Сойки" долгое время радовали зрителей в исполнении этого легендарного грузинского коллектива, а потом с помощью кинорежиссера Евгения Гинзбурга перекочевали на экран, став основой для известного мультфильма и кинофильма. Этой комедией, полной грузинского юмора и пионерского оптимизма, засматривались еще бабушки и дедушки сегодняшних маленьких зрителей Цирка на Вернадского….

Релиз от:

Кодек: х264
Качество: DVDRip-AVC
Видео: MPEG-4 AVC, 698x572@744x572, 25 fps, 2700 Кбит/с
Звук: AC3, 2 ch, 256 Кбит/с


    x264 [info]: frame I:528 Avg QP:18.49 size: 60456
    x264 [info]: frame P:26438 Avg QP:20.05 size: 30374
    x264 [info]: frame B:78910 Avg QP:22.42 size: 7942
Общее
Уникальный идентификатор : 182535475427199522072275240531542830853 (0x89530DC61651081B95968D0703C66F05)
Полное имя : D:Свадьба соек_1984-DVDRip-AVC_KORSAR.mkv
Формат : Matroska
Версия формата : Version 2
Размер файла : 1,49 Гбайт
Продолжительность : 1 ч. 10 м.
Общий поток : 3019 Кбит/сек
Название фильма : Свадьба соек_1984-DVDRip-AVC_KORSAR
Дата кодирования : UTC 2018-06-08 13:01:31
Программа кодирования : mkvmerge v5.8.0 ('No Sleep / Pillow') built on Sep 2 2012 15:37:04
Библиотека кодирования : libebml v1.2.3 + libmatroska v1.3.0

Видео
Идентификатор : 1
Формат : AVC
Формат/Информация : Advanced Video Codec
Профиль формата : High@L4.1
Параметр CABAC формата : Да
Параметр RefFrames формата : 15 кадров
Идентификатор кодека : V_MPEG4/ISO/AVC
Продолжительность : 1 ч. 10 м.
Битрейт : 2703 Кбит/сек
Ширина : 698 пикселей
Высота : 572 пикселя
Соотношение сторон : 4:3
Соотношение сторон в оригинале : 4:3
Режим частоты кадров : Постоянный
Частота кадров : 25,000 кадров/сек
Цветовое пространство : YUV
Субдискретизация насыщенности : 4:2:0
Битовая глубина : 8 бит
Тип развёртки : Прогрессивная
Бит/(Пиксели*Кадры) : 0.271
Размер потока : 1,33 Гбайт (90%)
Библиотека кодирования : x264 core 152 r2851kMod ba24899
Настройки программы : cabac=1 / ref=15 / deblock=1:-2:-1 / analyse=0x3:0x133 / me=umh / subme=10 / psy=1 / fade_compensate=0.00 / psy_rd=1.05:0.12 / mixed_ref=1 / me_range=32 / chroma_me=1 / trellis=2 / 8x8dct=1 / cqm=0 / deadzone=21,11 / fast_pskip=1 / chroma_qp_offset=-3 / threads=12 / lookahead_threads=3 / sliced_threads=0 / nr=0 / decimate=1 / interlaced=0 / bluray_compat=0 / constrained_intra=0 / bframes=10 / b_pyramid=2 / b_adapt=2 / b_bias=0 / direct=1 / weightb=1 / open_gop=0 / weightp=2 / keyint=250 / keyint_min=25 / scenecut=40 / intra_refresh=0 / rc=crf / mbtree=0 / crf=17.7000 / qcomp=0.63 / qpmin=0 / qpmax=39 / qpstep=4 / ip_ratio=1.40 / pb_ratio=1.30 / aq=1:1.00
Язык : English
Default : Да
Forced : Нет
Цветовой диапазон : Limited
Основные цвета : BT.601 PAL
Характеристики трансфера : BT.470 System B, BT.470 System G
Коэффициенты матрицы : BT.601

Аудио
Идентификатор : 2
Формат : AC-3
Формат/Информация : Audio Coding 3
Параметр Endianness формата : Big
Идентификатор кодека : A_AC3
Продолжительность : 1 ч. 10 м.
Вид битрейта : Постоянный
Битрейт : 256 Кбит/сек
Каналы : 2 канала
Расположение каналов : Front: L R
Частота : 48,0 КГц
Частота кадров : 31,250 кадров/сек (1536 SPF)
Битовая глубина : 16 бит
Метод сжатия : С потерями
Размер потока : 129 Мбайт (8%)
Язык : Russian
Default : Да
Forced : Нет

Меню
00:00:00.000 : en:Chapter 1
00:08:28.320 : en:Chapter 2
00:13:40.320 : en:Chapter 3
00:21:37.440 : en:Chapter 4
00:27:40.320 : en:Chapter 5
00:34:28.800 : en:Chapter 6
00:49:11.520 : en:Chapter 7
00:53:34.080 : en:Chapter 8
01:05:19.200 : en:Chapter 9



_________________
Проголосуй за трекер Открытый торрент трекер - RUS-MEDIA.ORG

Проголосуй Открытый торрент трекер - RUS-MEDIA.ORG


Вернуться к началу
 Профиль Отправить личное сообщение  
 
   Похожие торренты   Автор   Торрент   Размер 
В этой теме нет новых непрочитанных сообщений. Белая свадьба / Noce blanche [драма, мелодрама, 1989] DVDRip, Dvo

salma3

0 | 1

785.57 МБ

В этой теме нет новых непрочитанных сообщений. Класс 1984 / Class of 1984 [боевик, триллер, драма, 1982] BDRip, Avo

salma3

27 | 4

1.45 ГБ

В этой теме нет новых непрочитанных сообщений. 1984 / Nineteen Eighty-Four [фантастика, триллер, драма, 1984] BDRemux 1080р, Mvo

salma3

42 | 14

17.64 ГБ

В этой теме нет новых непрочитанных сообщений. Класс 1984 / Class of 1984 [боевик, триллер, драма, 1982] BDRip-AVC, Avo

salma3

5 | 6

2.18 ГБ

В этой теме нет новых непрочитанных сообщений. Класс 1984 / Class of 1984 [боевик, триллер, драма, 1982] HDRip, Avo

salma3

30 | 8

745.19 МБ

В этой теме нет новых непрочитанных сообщений. Марш для императора / Die Deutschmeister [мелодрама, музыкальный, 1955] DVDRip, Avo

salma3

0 | 8

1.46 ГБ

В этой теме нет новых непрочитанных сообщений. Класс 1984 / Class of 1984 [боевик, триллер, драма, криминал, 1982] BDRip 1080p, Avo

salma3

101 | 32

7.76 ГБ


Начать новую тему Ответить на тему  [ 1 сообщение ] 




Для Мосгорсуда, Роскомнадзора и рекламодателей:: mosgorsud-torrent[собачка]yandex.ru
cron