Торрент файл
скачать торрент магнет ссылка Добавлен: 14 сен 2018, 10:48
Размер: 1.47 ГБ
Сидеров: 0
Личеров: 0
Статус: (salma3)
Автор

СообщениеДобавлено: 14 сен 2018, 10:48 

Не в сети
Супермодератор
Аватара пользователя
Дата регистрации:
15 фев 2012, 16:44
Возраст: 29
Спасибо: 7400 / 2147
Сообщения: 78133
Страна: СССР
Студия: К/с им. М. Горького
Жанр: Дететектив
Год выпуска: 1986
Продолжительность: 01:15:12
Перевод: Не требуется
Режиссер: Виктop Живoлуб
В ролях: Евгений Герасимов, Татьяна Догилева, Юрий Назаров, Андрей Ростоцкий, Олег Шкловский (...Флеран),
Альгис Матулионис, Олег Ли, Эрменгельд Коновалов, гр."Машина времени"

Описание: Судьбы двух школьных товарищей сложились по-разному: один стал офицером пограничных войск,
а другой устроился барменом в ресторане портового города Приморска и оказался втянутым в операцию, тщательно разработанную иностранной разведкой.
Бармен портового ресторана присвоил себе бумажник с крупной суммой валюты, «случайно оброненной» в его машине членом команды иностранного судна,
после чего попал в разработку западных спецслужб. О степени морального разложения бармена и его подруги можно судить по их непреодолимому желанию
посетить концерт знаменитой поп-группы
(в фильме играет группа "Машина времени" и звучит песня "Оторвись от забот, пусть тебе повезет").
Зритель, как и герои умело поставлен режиссером в ситуацию выбора
между порочной чувственностью Татьяны Догилевой и обаянием невинности Натальи Вавиловой.



Кодек: х264
Качество: DVDRip-AVC
Видео: MPEG-4 AVC, 694х376@740x376, 25 fps, 2600 Кбит/с
Аудио: АС3, 2h, 192 Кбит/с


x264 [info]: frame I:599 Avg QP:15.76 size: 56102
x264 [info]: frame P:24102 Avg QP:18.08 size: 30810
x264 [info]: frame B:88099 Avg QP:20.24 size: 7836

Общее
Уникальный идентификатор : 186919080233145326221372729516751282532 (0x8C9F4E2D5F6DAD8EBB7DBC57A5576164)
Полное имя : E:Мои рипыБармен из золотого якоря_1986_DVDRip-AVC_KORSAR.mkv
Формат : Matroska
Версия формата : Version 2
Размер файла : 1,47 Гбайт
Продолжительность : 1 ч. 15 м.
Общий поток : 2794 Кбит/сек
Дата кодирования : UTC 2018-03-25 13:57:22
Программа кодирования : mkvmerge v5.8.0 ('No Sleep / Pillow') built on Sep 2 2012 15:37:04
Библиотека кодирования : libebml v1.2.3 + libmatroska v1.3.0

Видео
Идентификатор : 1
Формат : AVC
Формат/Информация : Advanced Video Codec
Профиль формата : High@L4.1
Настройки формата : CABAC / 15 Ref Frames
Параметр CABAC формата : Да
Параметр RefFrames формата : 15 кадров
Идентификатор кодека : V_MPEG4/ISO/AVC
Продолжительность : 1 ч. 15 м.
Битрейт : 2600 Кбит/сек
Ширина : 694 пикселя
Высота : 376 пикселей
Соотношение сторон : 1,968
Соотношение сторон в оригинале : 1,969
Режим частоты кадров : Постоянный
Частота кадров : 25,000 кадров/сек
Цветовое пространство : YUV
Субдискретизация насыщенности : 4:2:0
Битовая глубина : 8 бит
Тип развёртки : Прогрессивная
Бит/(Пиксели*Кадры) : 0.399
Размер потока : 1,34 Гбайт (91%)
Библиотека кодирования : x264 core 152 r2851kMod ba24899
Настройки программы : cabac=1 / ref=15 / deblock=1:-2:-2 / analyse=0x3:0x133 / me=umh / subme=11 / psy=1 / fade_compensate=0.00 / psy_rd=0.70:0.03 / mixed_ref=1 / me_range=48 / chroma_me=1 / trellis=2 / 8x8dct=1 / cqm=0 / deadzone=21,11 / fast_pskip=0 / chroma_qp_offset=-3 / threads=12 / lookahead_threads=2 / sliced_threads=0 / nr=0 / decimate=0 / interlaced=0 / bluray_compat=0 / constrained_intra=0 / bframes=8 / b_pyramid=2 / b_adapt=2 / b_bias=0 / direct=3 / weightb=1 / open_gop=0 / weightp=2 / keyint=250 / keyint_min=25 / scenecut=40 / intra_refresh=0 / rc_lookahead=40 / rc=2pass / mbtree=0 / bitrate=2600 / ratetol=1.0 / qcomp=0.60 / qpmin=0 / qpmax=39 / qpstep=4 / cplxblur=20.0 / qblur=0.5 / vbv_maxrate=50000 / vbv_bufsize=62500 / nal_hrd=none / filler=0 / ip_ratio=1.25 / pb_ratio=1.30 / aq=1:0.80
Язык : English
Default : Да
Forced : Нет
Цветовой диапазон : Limited
Основные цвета : BT.601 PAL
Характеристики трансфера : BT.470 System B, BT.470 System G
Коэффициенты матрицы : BT.470 System B, BT.470 System G

Аудио
Идентификатор : 2
Формат : AC-3
Формат/Информация : Audio Coding 3
Параметр Endianness формата : Big
Идентификатор кодека : A_AC3
Продолжительность : 1 ч. 15 м.
Вид битрейта : Постоянный
Битрейт : 192 Кбит/сек
Каналы : 2 канала
Расположение каналов : Front: L R
Частота : 48,0 КГц
Частота кадров : 31,250 кадров/сек (1536 SPF)
Битовая глубина : 16 бит
Метод сжатия : С потерями
Размер потока : 103 Мбайт (7%)
Язык : Russian
Default : Да
Forced : Нет






_________________
Проголосуй за трекер Открытый торрент трекер - RUS-MEDIA.ORG

Проголосуй Открытый торрент трекер - RUS-MEDIA.ORG


Вернуться к началу
 Профиль Отправить личное сообщение  
 
   Похожие торренты   Автор   Торрент   Размер 
В этой теме нет новых непрочитанных сообщений. Профи золотого возраста / Det grå guld [драма, комедия, боевик, DVDRip, 2013] Sub Rus

salma3

5 | 3

1.45 ГБ

В этой теме нет новых непрочитанных сообщений. Поднять якоря! / Elias og Storegaps Hemmelighet [мультфильм, 2017] WEBRip 720p, Dub [Line]

salma3

0 | 25

2.18 ГБ

В этой теме нет новых непрочитанных сообщений. Бармен ( комедия, фэнтези, 2015) DVD5

marya111

0 | 4

4.37 ГБ

В этой теме нет новых непрочитанных сообщений. Маньяк снов / Dreamaniac [ужасы, 1986] DVDRip, Avo

salma3

0 | 0

1.47 ГБ

В этой теме нет новых непрочитанных сообщений. Супер Фантоцци / Superfantozzi [Комедия, 1986] DVDRip-AVC, Avo

salma3

111 | 68

3.78 ГБ

В этой теме нет новых непрочитанных сообщений. Попутчик / The Hitcher [боевик, триллер, 1986] DVDRip-AVC, Dub

salma3

13 | 3

2.92 ГБ

В этой теме нет новых непрочитанных сообщений. Карательница / L'exécutrice [боевик, триллер, 1986] DVDRip, Avo

salma3

299 | 91

1.43 ГБ


Начать новую тему Ответить на тему  [ 1 сообщение ] 




Для Мосгорсуда, Роскомнадзора и рекламодателей:: mosgorsud-torrent[собачка]yandex.ru
cron
cron