Торрент файл
скачать торрент магнет ссылка Добавлен: 22 окт 2018, 21:04
Размер: 4.12 ГБ
Сидеров: 0
Личеров: 0
Статус: (salma3)
Автор

СообщениеДобавлено: 22 окт 2018, 21:04 

В сети
Супермодератор
Аватара пользователя
Дата регистрации:
15 фев 2012, 16:44
Возраст: 29
Спасибо: 7400 / 2147
Сообщения: 78337
Год выхода: 1968
Жанр: Боевик, приключения
Режиссёр: Эдмонд Кеосаян

В ролях: Михаил Метёлкин, Василий Васильев, Виктор Косых, Валентина Курдюкова, Армен Джигарханян, Борис Сичкин, Аркадий Толбузин, Владимир Ивашов, Ефим Копелян, Константин Сорокин

Описание: Возвращаясь из дозора, четверка отважных «неуловимых» подбивает аэроплан. В полевой сумке взятого в плен летчика они обнаруживают секретное донесение, где говорится о существовании оборонительных укреплений вокруг приморского города, который красным еще предстоит взять. Юные герои получают задание добыть карту укреплений и едут в город.



Выпущено: СССР
Продолжительность: 01:17:44
Перевод: Не требуется

Файл
Кодек: х264
Качество: WEBRip 720p
Видео: MPEG-4 AVC, 1280x576, 7007 Кбит/с, 25.000 fps
Аудио 1: AC3, 6 ch, 448 Кбит/с
Аудио 2: AC3, 1 ch, 128 Кбит/с
Субтитры: Нет
Навигация по главам: Есть

Релиз от:


x264 [info]: frame I:672 Avg QP:18.50 size: 151317
x264 [info]: frame P:35149 Avg QP:20.41 size: 72819
x264 [info]: frame B:80783 Avg QP:21.81 size: 23188

======================================

Общее
Уникальный идентификатор : 173841589282220631172883055081441118638 (0x82C8AC17C79B1CC19D12A6445DF6C9AE)
Полное имя : Новые.приключения.неуловимых.1968.WEBRip.720p.KORSAR.mkv
Формат : Matroska
Версия формата : Version 2
Размер файла : 4,12 Гбайт
Продолжительность : 1 ч. 17 м.
Общий поток : 7585 Кбит/сек
Дата кодирования : UTC 2017-03-12 15:31:20
Программа кодирования : mkvmerge v5.8.0 ('No Sleep / Pillow') built on Sep 2 2012 15:37:04
Библиотека кодирования : libebml v1.2.3 + libmatroska v1.3.0

Видео
Идентификатор : 1
Формат : AVC
Формат/Информация : Advanced Video Codec
Профиль формата : High@L4.1
Параметр CABAC формата : Да
Параметр RefFrames формата : 11 кадров
Идентификатор кодека : V_MPEG4/ISO/AVC
Продолжительность : 1 ч. 17 м.
Битрейт : 7007 Кбит/сек
Ширина : 1280 пикселей
Высота : 576 пикселей
Соотношение сторон : 2,222
Режим частоты кадров : Постоянный
Частота кадров : 25,000 кадров/сек
Цветовое пространство : YUV
Субдискретизация насыщенности : 4:2:0
Битовая глубина : 8 бит
Тип развёртки : Прогрессивная
Бит/(Пиксели*Кадры) : 0.380
Размер потока : 3,72 Гбайт (90%)
Заголовок : Новые.приключения.неуловимых.1968.WEBRip.720p.KORSAR
Библиотека кодирования : x264 core 148 r2744kMod b97ae06
Настройки программы : cabac=1 / ref=11 / deblock=1:-1:-1 / analyse=0x3:0x113 / me=umh / subme=10 / psy=1 / fade_compensate=0.00 / psy_rd=1.05:0.10 / mixed_ref=1 / me_range=32 / chroma_me=1 / trellis=2 / 8x8dct=1 / cqm=0 / deadzone=21,11 / fast_pskip=0 / chroma_qp_offset=-3 / threads=12 / lookahead_threads=2 / sliced_threads=0 / nr=0 / decimate=0 / interlaced=0 / bluray_compat=0 / constrained_intra=0 / bframes=8 / b_pyramid=2 / b_adapt=2 / b_bias=0 / direct=3 / weightb=1 / open_gop=0 / weightp=2 / keyint=250 / keyint_min=25 / scenecut=40 / intra_refresh=0 / rc_lookahead=40 / rc=2pass / mbtree=0 / bitrate=7007 / ratetol=1.0 / qcomp=0.63 / qpmin=0 / qpmax=39 / qpstep=4 / cplxblur=20.0 / qblur=0.5 / vbv_maxrate=50000 / vbv_bufsize=62500 / nal_hrd=none / filler=0 / ip_ratio=1.25 / pb_ratio=1.30 / aq=2:0.80
Язык : English
Default : Да
Forced : Нет
Цветовой диапазон : Limited
Основные цвета : BT.709
Характеристики трансфера : BT.709
Коэффициенты матрицы : BT.709

Аудио #1
Идентификатор : 2
Формат : AC-3
Формат/Информация : Audio Coding 3
Параметр Endianness формата : Big
Идентификатор кодека : A_AC3
Продолжительность : 1 ч. 17 м.
Вид битрейта : Постоянный
Битрейт : 448 Кбит/сек
Каналы : 6 каналов
Расположение каналов : Front: L C R, Side: L R, LFE
Частота : 48,0 КГц
Частота кадров : 31,250 кадров/сек (1536 SPF)
Битовая глубина : 16 бит
Метод сжатия : С потерями
Задержка видео : 2 с. 798 мс.
Размер потока : 249 Мбайт (6%)
Язык : Russian
Default : Да
Forced : Нет

Аудио #2
Идентификатор : 3
Формат : AC-3
Формат/Информация : Audio Coding 3
Параметр Endianness формата : Big
Идентификатор кодека : A_AC3
Продолжительность : 1 ч. 17 м.
Вид битрейта : Постоянный
Битрейт : 128 Кбит/сек
Каналы : 1 канал
Расположение каналов : Front: C
Частота : 48,0 КГц
Частота кадров : 31,250 кадров/сек (1536 SPF)
Битовая глубина : 16 бит
Метод сжатия : С потерями
Задержка видео : 2 с. 798 мс.
Размер потока : 71,2 Мбайт (2%)
Язык : Russian
Default : Нет
Forced : Нет

Меню
00:00:00.000 : en:Chapter 1
00:04:16.800 : en:Chapter 2
00:12:55.800 : en:Chapter 3
00:17:21.000 : en:Chapter 4
00:25:13.800 : en:Chapter 5
00:30:16.800 : en:Chapter 6
00:37:14.400 : en:Chapter 7
00:43:09.000 : en:Chapter 8
00:45:43.200 : en:Chapter 9
00:53:09.600 : en:Chapter 10
01:00:51.000 : en:Chapter 11
01:07:56.400 : en:Chapter 12


_________________
Проголосуй за трекер Открытый торрент трекер - RUS-MEDIA.ORG

Проголосуй Открытый торрент трекер - RUS-MEDIA.ORG


Вернуться к началу
 Профиль Отправить личное сообщение  
 
   Похожие торренты   Автор   Торрент   Размер 
В этой теме нет новых непрочитанных сообщений. Новые приключения неуловимых [боевик, приключения, 1968] DVDRip

salma3

37 | 6

1.44 ГБ

В этой теме нет новых непрочитанных сообщений. Новые приключения Пса и его друзей / Рок ку-ка-ре-ку / Rock-A-Doodle [мультфильм, комедия, приключения, 1990] BDRip 720p, Dub

salma3

26 | 6

6.65 ГБ

В этой теме нет новых непрочитанных сообщений. Новые приключения Винни Пуха / The New Adventures of Winnie the Pooh [S01-04] [мультфильм, фэнтези, комедия, 1988-1991] WEBRip-AVC, Dub

salma3

0 | 0

11.95 ГБ

В этой теме нет новых непрочитанных сообщений. Арабские приключения / Arabian Adventure [Сказка, приключения, семейный, 1979] WEBRip 720p, Dub

salma3

0 | 0

4.71 ГБ

В этой теме нет новых непрочитанных сообщений. Неуловимые мстители [Приключения, боевик, 1966] WEBRip 720p

salma3

0 | 0

3.91 ГБ

В этой теме нет новых непрочитанных сообщений. Короли / Baadshaho [Боевик, триллер, приключения, 2017] WEBRip 720p, Dvo

salma3

100 | 8

1.38 ГБ

В этой теме нет новых непрочитанных сообщений. Боевая песня / Mukoku [боевик, приключения, 2017] WEBRip 720p, Dvo

salma3

0 | 3

3.38 ГБ


Начать новую тему Ответить на тему  [ 1 сообщение ] 




Для Мосгорсуда, Роскомнадзора и рекламодателей:: mosgorsud-torrent[собачка]yandex.ru
cron