Торрент файл
скачать торрент магнет ссылка Добавлен: 08 мар 2016, 16:15
Размер: 1.42 ГБ
Сидеров: 1
Личеров: 1
Автор

СообщениеДобавлено: 08 мар 2016, 16:15 

Не в сети
Супермодератор
Аватара пользователя
Дата регистрации:
15 фев 2012, 16:44
Возраст: 29
Спасибо: 7434 / 2147
Сообщения: 80293
Мира / Meera

Страна: Индия
Жанр: Мелодрама
Год выпуска: 1992
Продолжительность: 02:24:00

Перевод: Одноголосый закадровый Nastia
Cубтитры: русские (внешние, только на тексты песен)
Режиссер: П.С. Шрирам / P.C. Sreeram

В ролях: Чийян Викрам, Айшвария, Сарат Кумар, Нассер, Джанагарадж

Описание: Колледж, студенты, гормоны. Хочется объять необъятное. Сталкиваются два полюса, две противоположности, мальчик любит девочку, девочка отчаянно сопротивляется. Сопротивляется, но уже понимает, что ей не выкарабкаться, Купидоша-баловник стреляет метко! Главным героям приходится нелегко. Дураки и злодеи мешают жить. Но в итоге нас всех ждет торжество разума и любви...

Доп. информация:

Перевод субтитров и описание фильма: Zarin@ (Спасибо!)
Озвучка: Nastia (Спасибо!)
Материалы: larisa_k (Спасибо!)
Сведение аудио: керелис (Спасибо!)

Сэмпл: http://multi-up.com/1092247

Качество видео: DVDRip
Формат видео: AVI

Видео: XviD, 640x272 (2.35:1), 29.970 fps, 1195 kbps avg
Аудио: AC3 Dolby Digital, 48 kHz, 2/0 (L,R) ch, 192.00 kbps
General
Complete name : F:\Meera\Meera.1992.DVDRip.BWTorrents\Meera.1992.DVDRip.BWTorrents.avi
Format : Matroska
File size : 1.42 GiB
Duration : 2h 24mn
Overall bit rate : 1 416 Kbps
Encoded date : UTC 2016-03-08 14:09:32
Writing application : mkvmerge v6.0.0 ('Coming Up For Air') built on Jan 20 2013 09:52:00
Writing library : libebml v1.3.0 + libmatroska v1.4.0

Video
ID : 1
Format : MPEG-4 Visual
Format profile : AdvancedSimple@L5
Format settings, BVOP : Yes
Format settings, QPel : No
Format settings, GMC : No warppoints
Format settings, Matrix : Default (MPEG)
Codec ID : XVID
Codec ID/Hint : XviD
Duration : 2h 23mn
Bit rate : 1 195 Kbps
Width : 640 pixels
Height : 272 pixels
Display aspect ratio : 2.35
Frame rate : 29.970 fps
Resolution : 24 bits
Colorimetry : 4:2:0
Scan type : Progressive
Bits/(Pixel*Frame) : 0.229
Stream size : 1.20 GiB (84%)
Title : Мира / Meera
Writing library : XviD 1.1.0 Beta2 (UTC 2005-04-04)

Audio
ID : 2
Format : AC-3
Format/Info : Audio Coding 3
Codec ID : A_AC3
Duration : 2h 24mn
Bit rate mode : Constant
Bit rate : 192 Kbps
Channel(s) : 2 channels
Channel positions : L R
Sampling rate : 48.0 KHz
Stream size : 198 MiB (14%)
Title : Мира / Meera
Language : Russian


_________________
Проголосуй за трекер Открытый торрент трекер - RUS-MEDIA.ORG

Проголосуй Открытый торрент трекер - RUS-MEDIA.ORG


Вернуться к началу
 Профиль Отправить личное сообщение  
 
   Похожие торренты   Автор   Торрент   Размер 
В этой теме нет новых непрочитанных сообщений. Танец на воде / The Waterdance [драма, мелодрама, 1992] DVDRip, Avo

salma3

54 | 14

1.6 ГБ

В этой теме нет новых непрочитанных сообщений. Центр мира / The Center of the World [драма, мелодрама, 2001] DVDRip, Avo

salma3

137 | 44

1.46 ГБ

В этой теме нет новых непрочитанных сообщений. Амитивилль 1992: Вопрос времени / Amityville: It's About Time [ужасы, 1992] DVDRip, Avo

salma3

0 | 1

1.45 ГБ

В этой теме нет новых непрочитанных сообщений. Безумные подмостки / Не шуметь / Noises Off! [Мелодрама, комедия, 1992] DVDRip-AVC, Mvo

salma3

0 | 0

2 ГБ

В этой теме нет новых непрочитанных сообщений. Принц из Нью-Йорка / Jersey Girl [драма, мелодрама, комедия, 1992] DVDRip, Dub

salma3

48 | 14

1.39 ГБ

В этой теме нет новых непрочитанных сообщений. Клэр, которая упала с луны / Claire of the Moon [драма, мелодрама, 1992] DVDRip, Avo

salma3

15 | 5

1.37 ГБ

В этой теме нет новых непрочитанных сообщений. Крыша мира [S02] [Комедия, мелодрама, 2017] WEB-DL 1080p

salma3

528 | 0

17.63 ГБ


Начать новую тему Ответить на тему  [ 1 сообщение ] 




Для Мосгорсуда, Роскомнадзора и рекламодателей:: mosgorsud-torrent[собачка]yandex.ru
cron