Торрент файл
скачать торрент магнет ссылка Добавлен: 22 ноя 2017, 12:38
Размер: 6.31 ГБ
Сидеров: 35
Личеров: 45
Статус: (salma3)
Автор

СообщениеДобавлено: 22 ноя 2017, 12:38 

Не в сети
Супермодератор
Аватара пользователя
Дата регистрации:
15 фев 2012, 16:44
Возраст: 29
Спасибо: 7422 / 2147
Сообщения: 79959
Год выхода: 2017
Жанр: Боевик, триллер, криминал, детектив
Режиссер: Тхалаивасал Виджай

В ролях: Вишал, Андреа Джеремия, Симран, К. Бхагьяраджа, Р.С. Прасанна, В. Джаяпракаш, Деваяни и другие

О фильме:
Работая детективом, ему часто приходилось распутывать сложные дела своих клиентов. Главным помощником ему всегда служил приятель Мано. Вместе они были, как современные Доктор Ватсон и Шерлок Холмс. Однажды этой парочке поручили найти пропавшую собаку. Проще дела у Детектива еще не было и он решил, что быстренько найдет пропажу. Однако, расследуя дело, он начал распутывать такой сложный клубок многочисленных преступлений, который вывели его на след неуловимого преступника, долгое время находящегося в розыске ...



Страна: Индия, Vishal Film Factory
Продолжительность: 02:35:14
Перевод: Любительский (двухголосый закадровый)[RecentFilms]

Файл
Кодек: MPEG-4 AVC/H.264
Качество: WEBRip 1080p
Видео: 1920x816, 23,976 fps, ~5628 Kbps, 0.150 bit/pixel
Звук:
Аудио rus: AC3, 48 kHz, 2 ch, 192 Kbps

Реклама: присутствует

Семпл

General
Unique ID : 242430730391979109750190337628498094762 (0xB66275D6E2F32EDBBCD9BA504A1CEAAA)
Complete name : F:FilmsThupparivaalan.2017.1080p.WEBRip.RecentFilmsThupparivaalan.2017.1080p.WEBRip.RecentFilms.mkv
Format : Matroska
Format version : Version 4 / Version 2
File size : 6.31 GiB
Duration : 2h 35mn
Overall bit rate : 5 822 Kbps
Encoded date : UTC 2017-11-22 01:20:34
Writing application : mkvmerge v17.0.0 ('Be Ur Friend') 64-bit
Writing library : libebml v1.3.5 + libmatroska v1.4.8

Video
ID : 1
Format : AVC
Format/Info : Advanced Video Codec
Format profile : High@L4
Format settings, CABAC : Yes
Format settings, ReFrames : 4 frames
Codec ID : V_MPEG4/ISO/AVC
Duration : 2h 35mn
Bit rate : 5 628 Kbps
Width : 1 920 pixels
Height : 816 pixels
Display aspect ratio : 2.35:1
Frame rate mode : Constant
Frame rate : 23.945 fps
Color space : YUV
Chroma subsampling : 4:2:0
Bit depth : 8 bits
Scan type : Progressive
Bits/(Pixel*Frame) : 0.150
Stream size : 6.10 GiB (97%)
Writing library : x264 core 148
Encoding settings : cabac=1 / ref=3 / deblock=1:0:0 / analyse=0x3:0x113 / me=hex / subme=7 / psy=1 / psy_rd=1.00:0.00 / mixed_ref=1 / me_range=16 / chroma_me=1 / trellis=1 / 8x8dct=1 / cqm=0 / deadzone=21,11 / fast_pskip=1 / chroma_qp_offset=-2 / threads=12 / lookahead_threads=2 / sliced_threads=0 / nr=0 / decimate=1 / interlaced=0 / bluray_compat=0 / constrained_intra=0 / bframes=3 / b_pyramid=2 / b_adapt=1 / b_bias=0 / direct=1 / weightb=1 / open_gop=0 / weightp=2 / keyint=250 / keyint_min=23 / scenecut=40 / intra_refresh=0 / rc_lookahead=40 / rc=abr / mbtree=1 / bitrate=5628 / ratetol=1.0 / qcomp=0.60 / qpmin=0 / qpmax=69 / qpstep=4 / ip_ratio=1.40 / aq=1:1.00
Default : Yes
Forced : No

Audio
ID : 2
Format : AC-3
Format/Info : Audio Coding 3
Mode extension : CM (complete main)
Format settings, Endianness : Big
Codec ID : A_AC3
Duration : 2h 35mn
Bit rate mode : Constant
Bit rate : 192 Kbps
Channel(s) : 2 channels
Channel positions : Front: L R
Sampling rate : 48.0 KHz
Frame rate : 31.250 fps (1536 spf)
Compression mode : Lossy
Stream size : 213 MiB (3%)
Default : Yes
Forced : No



Релиз от: RecentFilms


_________________
Проголосуй за трекер Открытый торрент трекер - RUS-MEDIA.ORG

Проголосуй Открытый торрент трекер - RUS-MEDIA.ORG


Вернуться к началу
 Профиль Отправить личное сообщение  
 
   Похожие торренты   Автор   Торрент   Размер 
В этой теме нет новых непрочитанных сообщений. Детектив / Thupparivaalan [Боевик, триллер, криминал, детектив, 2017] WEBRip, Dvo

salma3

116 | 38

1.4 ГБ

В этой теме нет новых непрочитанных сообщений. Детектив / Thupparivaalan [Боевик, триллер, криминал, 2017] HDRip, Mvo [GreenРай Studio]

salma3

5 | 10

2.05 ГБ

В этой теме нет новых непрочитанных сообщений. Детектив / Thupparivaalan [Боевик, триллер, криминал, 2017] HDRip 720p, Mvo [GreenРай Studio]

salma3

2 | 6

4.67 ГБ

В этой теме нет новых непрочитанных сообщений. Актриса [01-08 из 08] [Детектив, криминал, триллер, 2017] WEBRip 1080p

salma3

358 | 229

15.5 ГБ

В этой теме нет новых непрочитанных сообщений. Тьма / Dark [S01] [триллер, драма, криминал, детектив, 2017] WEBRip 1080p, Mvo [BaibaKo]

salma3

12 | 34

31.78 ГБ

В этой теме нет новых непрочитанных сообщений. Преследование / Поймать любой ценой / Bandeusi jabneunda [детектив, триллер, криминал, 2017] WEBRip 1080p, Dvo

salma3

0 | 0

4.09 ГБ

В этой теме нет новых непрочитанных сообщений. Джек Ричер 2: Никогда не возвращайся / Jack Reacher: Never Go Back ( боевик, триллер, криминал, детектив, приключения, 2016) WEBRip 1080p [iTunes]

marya111

307 | 61

4.43 ГБ


Начать новую тему Ответить на тему  [ 1 сообщение ] 




Для Мосгорсуда, Роскомнадзора и рекламодателей:: mosgorsud-torrent[собачка]yandex.ru
cron