Торрент файл
скачать торрент магнет ссылка Добавлен: 19 фев 2012, 12:57
Размер: 3.89 ГБ
Сидеров: 2
Личеров: 13
Автор

СообщениеДобавлено: 19 фев 2012, 12:57 

Не в сети
Дата регистрации:
13 фев 2012, 15:52
Спасибо: 8 / 0
Сообщения: 19
69-я церемония вручения премии «Золотой глобус» / 69th Annual Golden Globe Awards


Язык: Английский cубтитры:отсутствуют
Формат: HDTVRip, MKV, H264, AC3
Страна: США
Выпущено: Альфред Хабер Дистрибьюшн
Ведущий: Рикки Джервейс / Ricky Gervais
Жанр: ТВ-шоу
Продолжительность: 02:48:00
Год выпуска: 2012

В ролях: Джони Депп, Джерард Батлер, Мила Кунис, Эштон Катчер, Кейт Уинслет, Джейк Джилленхол, Мишель Уильямс, Мадонна, Николь Кидман, Фелисити Хаффмен, Джейн Линч, Риз Уизерспун, Сальма Хайек, София Вергара, Антонио Бандерас, Леонардо ДиКаприо, Роберт Дауни мл., Марк Уолберг, Бред Питт, Джордж Клуни и др.

Описание: Golden Globe Award - американская кинопремия, присуждается Голливудской ассоциацией иностранной прессы с 1944 года за кинофильмы и телевизионные картины. 69-я церемония вручения наград премии «Золотой глобус» за заслуги в области кинематографа за 2011 год состоится 15 января 2012 года в Беверли-Хиллз, Калифорния, США. Ведущим церемонии в третий раз подряд станет комик Рикки Джервейс.


Рейтинг MPAA: G

Golden Globe Awards 2012:
Видео: 1280x720 (16:9), 29.97 fps, AVC (x264), ,2492 Kbps, 0.090 bit/pixel
Аудио: Английская48.0 kHz, AC3, 6 ch, ~ 384 Kbps

Golden Globe Awards 2012 Arrival Specialo:
Видео: 1280x720 (16:9), 29.97 fps, AVC (x264), ,4268 Kbps, 0.155 bit/pixel
Аудио: Английская48.0 kHz, AC3, 2 ch, ~ 128 Kbps


General
Complete name: C:\Users\1\Desktop\релизы\Золотой глобус 2012\golden_globe_awards_2012_[tfile.ru]\Golden Globe Awards 2012 Arrival.Special.mkv
Format: Matroska
File size: 1.29 GiB
Duration: 41mn 12s
Overall bit rate: 4 485 Kbps
Writing application: x264.exe
Writing library: mkv2rls x264-tv version built on 2011. febr. 17

Video
ID: 1
Format: AVC
Format/Info: Advanced Video Codec
Format profile:
Format settings, CABAC: Yes
Format settings, ReFrames: 5 frames
Muxing mode: Container profile=Unknown@3.1
Codec ID: V_MPEG4/ISO/AVC
Duration: 41mn 10s
Bit rate: 4 268 Kbps
Width: 1 280 pixels
Height: 720 pixels
Display aspect ratio: 16:9
Frame rate: 29.970 fps
Resolution: 8 bits
Colorimetry: 4:2:0
Scan type: Progressive
Bits/(Pixel*Frame): 0.155
Stream size: 1.23 GiB (95%)
Writing library: x264 core 120 r2120 0c7dab9
Encoding settings: cabac=1 / ref=5 / deblock=1:0:0 / analyse=0x3:0x113 / me=umh / subme=8 / psy=1 / psy_rd=1.00:0.00 / mixed_ref=1 / me_range=16 / chroma_me=1 / trellis=1 / 8x8dct=1 / cqm=0 / deadzone=21,11 / fast_pskip=1 / chroma_qp_offset=-2 / threads=18 / sliced_threads=0 / nr=0 / decimate=1 / interlaced=0 / bluray_compat=0 / constrained_intra=0 / bframes=3 / b_pyramid=2 / b_adapt=2 / b_bias=0 / direct=3 / weightb=1 / open_gop=0 / weightp=2 / keyint=250 / keyint_min=25 / scenecut=40 / intra_refresh=0 / rc_lookahead=50 / rc=crf / mbtree=1 / crf=19.0 / qcomp=0.60 / qpmin=0 / qpmax=69 / qpstep=4 / ip_ratio=1.40 / aq=1:1.00

Audio
ID: 2
Format: AC-3
Format/Info: Audio Coding 3
Codec ID: A_AC3
Duration: 41mn 12s
Bit rate mode: Constant
Bit rate: 128 Kbps
Channel(s): 2 channels
Channel positions: L R
Sampling rate: 48.0 KHz
Stream size: 37.7 MiB (3%)

General
Complete name: C:\Users\1\Desktop\релизы\Золотой глобус 2012\golden_globe_awards_2012_[tfile.ru]\Golden Globe Awards 2012.mkv
Format: Matroska
File size: 2.60 GiB
Duration: 2h 6mn
Overall bit rate: 2 934 Kbps
Encoded date: UTC 2012-01-16 08:31:02
Writing application: mkvmerge v2.0.2 ('You're My Flame') built on Jul 16 2008 20:03:58
Writing library: libebml v0.7.7 + libmatroska v0.8.1

Video
ID: 1
Format: AVC
Format/Info: Advanced Video Codec
Format profile:
Format settings, CABAC: Yes
Format settings, ReFrames: 5 frames
Muxing mode: Container profile=Unknown@4.1
Codec ID: V_MPEG4/ISO/AVC
Duration: 2h 6mn
Bit rate: 2 492 Kbps
Width: 1 280 pixels
Height: 720 pixels
Display aspect ratio: 16:9
Frame rate: 29.970 fps
Resolution: 8 bits
Colorimetry: 4:2:0
Scan type: Progressive
Bits/(Pixel*Frame): 0.090
Stream size: 2.20 GiB (85%)
Writing library: x264 core 120 r2120 0c7dab9
Encoding settings: cabac=1 / ref=5 / deblock=1:0:0 / analyse=0x3:0x113 / me=umh / subme=8 / psy=1 / psy_rd=1.00:0.00 / mixed_ref=1 / me_range=16 / chroma_me=1 / trellis=1 / 8x8dct=1 / cqm=0 / deadzone=21,11 / fast_pskip=1 / chroma_qp_offset=-2 / threads=12 / sliced_threads=0 / nr=0 / decimate=1 / interlaced=0 / bluray_compat=0 / constrained_intra=0 / bframes=3 / b_pyramid=2 / b_adapt=2 / b_bias=0 / direct=3 / weightb=1 / open_gop=0 / weightp=2 / keyint=250 / keyint_min=25 / scenecut=40 / intra_refresh=0 / rc_lookahead=50 / rc=crf / mbtree=1 / crf=21.0 / qcomp=0.60 / qpmin=0 / qpmax=69 / qpstep=4 / ip_ratio=1.40 / aq=1:1.00
Language: English

Audio
ID: 2
Format: AC-3
Format/Info: Audio Coding 3
Codec ID: A_AC3
Duration: 2h 6mn
Bit rate mode: Constant
Bit rate: 384 Kbps
Channel(s): 6 channels
Channel positions: Front: L C R, Surround: L R, LFE
Sampling rate: 48.0 KHz
Stream size: 348 MiB (13%)














Поделиться:



Вернуться к началу
 Профиль Отправить личное сообщение  
 
   Похожие торренты   Автор   Торрент   Размер 
В этой теме нет новых непрочитанных сообщений. 59-я церемония вручения наград Грэмми / The 59th Grammy Awards 2017 ( Церемония Вручения Наград | Концерт, 2017) HDTVRip 720p | Первый Канал

marya111

0 | 0

3.17 ГБ

В этой теме нет новых непрочитанных сообщений. История о Рикки / Riki-Oh: The Story of Ricky / Lik Wong [ужасы, боевик, комедия, 1991] BDRip-AVC, Avo

salma3

19 | 4

743.11 МБ

В этой теме нет новых непрочитанных сообщений. История о Рикки / Riki-Oh: The Story of Ricky / Lik Wong [боевик, триллер, комедия, 1991] BDRemux 1080p, Avo

salma3

0 | 0

12.94 ГБ

В этой теме нет новых непрочитанных сообщений. Наживка / Леди против Рикки Бахла / Ladies vs. Ricky Bahl [драма, комедия, 2011] HDRip, Mvo [SDI Media]

salma3

18 | 4

1.46 ГБ

В этой теме нет новых непрочитанных сообщений. Операция Золотой Феникс / Operation Golden Phoenix [Боевик, 1994] DVDRip-AVC, Dvo

salma3

0 | 0

1.94 ГБ

В этой теме нет новых непрочитанных сообщений. Операция Золотой Феникс / Operation Golden Phoenix [Боевик, 1994] LDRip, Avo

salma3

79 | 15

1.45 ГБ

В этой теме нет новых непрочитанных сообщений. Золотой ребенок / The Golden Child [фэнтези, боевик, комедия, 1986] WEBRip 1080p, Mvo

salma3

80 | 43

11.16 ГБ


Начать новую тему Ответить на тему  [ 1 сообщение ] 




Для Мосгорсуда, Роскомнадзора и рекламодателей:: mosgorsud-torrent[собачка]yandex.ru
cron