Торрент файл
скачать торрент магнет ссылка Добавлен: 15 июл 2015, 22:25
Размер: 168.52 МБ
Сидеров: 160
Личеров: 10
Автор

СообщениеДобавлено: 15 июл 2015, 22:25 

Не в сети
Дата регистрации:
27 апр 2014, 21:05
Спасибо: 11 / 0
Сообщения: 65
Почему девушки так торопятся дать?

Перевод: Не требуется, cубтитры: отсутствуют
Формат: WEBRip, AVI, DivX, MP3
Страна: Россия
Режиссер: Алексей Меняйлов
Жанр: Психология
Продолжительность: 00:20:34
Год выпуска: 2015

Описание: В ролике задевается психологически важный для мужчин, да и не только для мужчин, вопрос "Почему девушки так торопятся дать?" и что самое интересное торопятся дать не всем, а именно определенному контингенту.

Видео: MPEG4, DivX 5, 720x406 (16:9), 25.000 fps, 943 Kbps (0.129 bit/pixel)
Аудио: MP3, 48.0 KHz, 2 ch, 192 Kbps, CBR

Доп. информация: Партизанская правда партизан


General
Формат : AVI
Формат/Информация : Audio Video Interleave
Размер файла : 169 MiB
Продолжительность : 20mn 34s
Общий поток : 1 145 Kbps

Video
Идентификатор : 0
Формат : MPEG-4 Visual
Параметр BVOP формата : 1
Параметр QPel формата : No
Параметр GMC формата : No warppoints
Параметр матрицы формата : Default (H.263)
Режим смешивания : Packed bitstream
Идентификатор кодека : DX50
Идентификатор кодека/Подсказка : DivX 5
Продолжительность : 20mn 34s
Битрейт : 943 Kbps
Ширина : 720 pixels
Высота : 406 pixels
Соотношение сторон : 16:9
Частота кадров : 25.000 fps
Цветовое пространство : YUV
Субдискретизация насыщенности : 4:2:0
Битовая глубина : 8 bits
Тип развёртки : Progressive
Метод сжатия : Lossy
Бит/(Пиксели*Кадры) : 0.129
Размер потока : 139 MiB (82%)
Заголовок : Video
Библиотека кодирования : DivX 2682

Audio
Идентификатор : 1
Формат : MPEG Audio
Версия формата : Version 1
Профиль формата : Layer 3
Режим : Joint stereo
Расширение режима : MS Stereo
Идентификатор кодека : 55
Идентификатор кодека/Подсказка : MP3
Продолжительность : 20mn 34s
Вид битрейта : Constant
Битрейт : 192 Kbps
Каналы : 2 channels
Частота : 48.0 KHz
Метод сжатия : Lossy
Размер потока : 28.3 MiB (17%)
Выравнивание : Split accross interleaves
Продолжительность промежутка : 40 ms (1.00 video frame)
Время предзагрузки промежутка : 500 ms
Заголовок : Audio - en-US01









Вернуться к началу
 Профиль Отправить личное сообщение  
 
   Похожие торренты   Автор   Торрент   Размер 
В этой теме нет новых непрочитанных сообщений. Как узнать тайную мечту своей девушки? (Алексей Меняйлов) [2016, Комедия, психология, самиздат, WEBRip]

vairgin

4 | 2

131.76 МБ

В этой теме нет новых непрочитанных сообщений. Как вернуть возлюбленного (Алексей Меняйлов) [2016, История, психология, самиздат, WEBRip]

vairgin

6 | 4

70.48 МБ

В этой теме нет новых непрочитанных сообщений. Главная обязанность дона Корлеоне (Алексей Меняйлов) [2017, психология, самиздат, WEBRip]

vairgin

9 | 4

248.34 МБ

В этой теме нет новых непрочитанных сообщений. Загадка “Бриллиантовой руки” (Алексей Меняйлов) [2016, Комедия, психология, самиздат, WEBRip]

vairgin

19 | 10

68.87 МБ

В этой теме нет новых непрочитанных сообщений. Как снять мужика в метро вплоть до брака? (Алексей Меняйлов) [2016, Комедия, психология, самиздат, WEBRip]

vairgin

24 | 12

121.67 МБ

В этой теме нет новых непрочитанных сообщений. Как имитируют изюминку самые эротичные женщины (Алексей Меняйлов) [2016, Психология, комедия, самиздат, WEBRip]

vairgin

22 | 3

113.99 МБ

В этой теме нет новых непрочитанных сообщений. Секреты успеха от лучших советских актеров (Алексей Меняйлов) [2012, Война, психология, самиздат, WEBRip]

vairgin

17 | 7

128.58 МБ


Начать новую тему Ответить на тему  [ 1 сообщение ] 




Для Мосгорсуда, Роскомнадзора и рекламодателей:: mosgorsud-torrent[собачка]yandex.ru
cron