Торрент файл
скачать торрент магнет ссылка Добавлен: 11 дек 2011, 00:42
Размер: 474.01 МБ
Сидеров: 7
Личеров: 9
Автор

СообщениеДобавлено: 11 дек 2011, 00:42 

Не в сети
Супермодератор
Аватара пользователя
Дата регистрации:
22 май 2010, 11:03
Возраст: 33
Спасибо: 7742 / 13
Сообщения: 49837
Выжить любой ценой: 6 сезон / Серии 4 (6) / Ultimate Survival: 6 Season /Man vs Wild (Discovery)


Перевод: Профессиональный (одноголосый), cубтитры: отсутствуют
Формат: SATRip, MKV, H.264, MP3
Страна: США, Великобритания
Режиссер: Майк Уорнер, Скотт Танкард
Жанр: документальный
Продолжительность: 00:43:00
Год выпуска: 2011
В ролях: Беар Гриллс
Описание: Беар служил в спецназе S.A.S является экспертом по выживанию в экстремальных природных условиях.
В этих фильмах он покажет как надо выживать,какие опасности таит в себе природа.
Беар покажет навыки выживания самым экстремальным образом.
Его выкидывают из вертолета с высоты 2000 метров и кроме парашюта у него есть при себе только нож и огниво.
Он должен найти пищу,воду,направление движения,укрытие.
На пути Беара будут вставать: скорпионы, каракурты, кобры, носороги, пираньи, акулы, слоны, медведи, львы, а также нестерпимый холод и адская жара.
Любитель приключений Беар Гриллс обладает незаурядной силой духа. Используя навыки, полученные во время службы в спецназе, он показывает, как можно выжить в самой дикой местности.




Видео: 704x400, 25.000 fps, AVC (x264), , ~1375 Kbps, 0.194 Bit/Pixel
Аудио: 48 kHz, MPEG Layer 3, 2 ch, ~128.00 kbps avg

Доп. информация: http://tfile.ru/forum/viewtopic.php?p=6011506
Выжить любой ценой (6 сезон, серии 1-3 из 6)


General
Complete name:Ultimate.Survival.S06.E04.Borneo.Jungle.rus.mkv
Format version: Version 2
File size: 474 MiB
Duration: 43mn 53s
Overall bit rate: 1 510 Kbps
Encoded date: UTC 2011-09-13 14:00:03
Writing application: mkvmerge v2.9.0 ('Moanin'') built on May 22 2009 17:46:31
Writing library: libebml v0.7.7 + libmatroska v0.8.1

Video
ID: 1
Format: AVC
Format/Info: Advanced Video Codec
Format profile:
Format settings, CABAC: Yes
Format settings, ReFrames: 5 frames
Codec ID: V_MPEG4/ISO/AVC
Duration: 43mn 53s
Bit rate: 1 380 Kbps
Width: 704 pixels
Height: 400 pixels
Display aspect ratio: 16:9
Frame rate: 25.000 fps
Color space: YUV
Chroma subsampling: 4:2:0
Bit depth: 8 bits
Scan type: Progressive
Bits/(Pixel*Frame): 0.196
Stream size: 424 MiB (90%)
Writing library: x264 core 68 r1195 5d75a9b
Encoding settings: cabac=1 / ref=5 / deblock=1:-1:-1 / analyse=0x3:0x133 / me=umh / subme=6 / psy_rd=1.0:0.0 / mixed_ref=1 / me_range=8 / chroma_me=1 / trellis=1 / 8x8dct=1 / cqm=0 / deadzone=21,11 / chroma_qp_offset=-2 / threads=6 / nr=0 / decimate=1 / mbaff=0 / bframes=5 / b_pyramid=1 / b_adapt=2 / b_bias=0 / direct=3 / wpredb=1 / keyint=250 / keyint_min=25 / scenecut=40 / rc=2pass / bitrate=1380 / ratetol=1.0 / qcomp=0.60 / qpmin=10 / qpmax=51 / qpstep=4 / cplxblur=20.0 / qblur=0.5 / ip_ratio=1.40 / pb_ratio=1.30 / aq=1:2.00

Audio
ID: 2
Format: MPEG Audio
Format version: Version 1
Format profile: Layer 3
Mode: Joint stereo
Mode extension: MS Stereo
Codec ID: A_MPEG/L3
Codec ID/Hint: MP3
Duration: 43mn 53s
Bit rate mode: Constant
Bit rate: 128 Kbps
Channel(s): 2 channels
Sampling rate: 48.0 KHz
Compression mode: Lossy
Stream size: 40.2 MiB (8%)
Writing library: LAME3.98r
Encoding settings: -m j -V 4 -q 2 -lowpass 17 -b 128









Поделиться:



Вернуться к началу
 Профиль Отправить личное сообщение  
 
   Похожие торренты   Автор   Торрент   Размер 
В этой теме нет новых непрочитанных сообщений. Животные-рекордсмены. Сорвиголовы / NAT GEO WILD. Ultimate Animal Countdown: Daredevils [документальный, 2012] SATRip, Avo

salma3

18 | 3

558.68 МБ

В этой теме нет новых непрочитанных сообщений. Discovery: Сканируя небо. Телескоп Discovery Channel / Discovery: Scanning the skies. The discovery channel telescope (Тони Бекон, Натан Хэндри) [2012, документальный, SATRip] AVO

salma3

0 | 1

379.98 МБ

В этой теме нет новых непрочитанных сообщений. Discovery. Звездное выживание с Беаром Гриллсом / Running Wild Bear Grylls [03x01] [природа, путешествия, экстрим, 2016] HDTVRip, Dvo

salma3

25 | 35

1 ГБ

В этой теме нет новых непрочитанных сообщений. Как устроена Вселенная (Сезон 2: 8 серий из 8 ) / How the Universe Works (Адам Уорнер) [2012, документальный, LowHDTVRip] VO

salma3

1 | 5

4.97 ГБ

В этой теме нет новых непрочитанных сообщений. Nat Geo Wild: Выжить в дикой природе / Survive the Wild [01-04 из 04] (2016) HDTV 1080i | P1

salma3

0 | 0

8.83 ГБ

В этой теме нет новых непрочитанных сообщений. Nat Geo Wild: Выжить в дикой природе / Survive the Wild [01-04 из 04] (2016) HDTVRip-AVC | P1

salma3

0 | 0

3.92 ГБ

В этой теме нет новых непрочитанных сообщений. Discovery. Космические столкновени [3 серии из 3] / Discovery. Cosmic Collisions (Бен Андерсон) [2008, документальный, HDTVRip 720p]

salma3

1 | 4

3.5 ГБ


Начать новую тему Ответить на тему  [ 1 сообщение ] 




Для Мосгорсуда, Роскомнадзора и рекламодателей:: mosgorsud-torrent[собачка]yandex.ru
cron