Торрент файл
скачать торрент магнет ссылка Добавлен: 11 дек 2011, 00:44
Размер: 1.29 ГБ
Сидеров: 15
Личеров: 6
Автор

СообщениеДобавлено: 11 дек 2011, 00:44 

Не в сети
Супермодератор
Аватара пользователя
Дата регистрации:
22 май 2010, 11:03
Возраст: 33
Спасибо: 7742 / 13
Сообщения: 49837
Коллекция "Золотой глобус". Фильм 11 - Австралия. Таинственный остров. Колониальная культура на фоне дикой природы


Перевод: Профессиональный (полное дублирование), cубтитры: отсутствуют
Формат: DVDRip-AVC, MKV, H.264, AC3

Страна: Германия
Режиссер: Майкл Линдер
Жанр: путешествия и туризм

Продолжительность: 01:29:00
Год выпуска: 2008

Описание: Наше кинопутешествие по Австралии начинается на юге страны - с города Сиднея и массива Голубых гор. Вслед за этим мы познакомимся с симпатичными представителями уникальной австралийской фауны - кукабаррой и коалой в Грампианских горах, тюленями и пингвинами на острове Филиппа. Следующие этапы нашего путешествия - это Мельбурн и остров Кенгуру, национальный парк Флиндерс Чейз и Аделаида. Мы посетим и знаменитый винодельческий регион - Долину Баросса. Незабываемые впечатления ждут нас в Кубер-Педи, где в 1915 году были открыты огромные залежи опала, а настоящие мистические переживания вызывает вид священной горы аборигенов Улуру. Путь первобытных жителей Австралии приводит нас в "красный центр" страны - Алис-Спрингс. Отправляясь дальше на север, мы откроем для себя национальный парк Какаду. "Солнечный штат" Квинсленд знаменит на весь мир Большим Барьерным рифом. Но и это еще не все - у нас впереди прогулка по тропическому лесу, путешествие по старинной железной дороге, незабываемый уик-энд в Перте и встреча с самой большой акулой в мире.

Видео: 720x576 (1.25:1), 25.000 fps, AVC(х264), , ~ 1900 Kbps, 0.183 bit/pixel
Аудио: 48 kHz, AС3 Dolby Digital, 2 ch (L, R), ~ 192 kbps avg

Релиз группа: Автор:




Формат: Matroska
Версия формата: Version 2
Размер файла: 1,29 Гбайт
Продолжительность: 1 ч. 29 м.
Общий поток: 2077 Кбит/сек
Программа кодирования: XviD4PSP 6.0 / 53.6.0
Библиотека кодирования: XviD4PSP 6.0 / 53.6.0

Видео
Идентификатор: 1
Формат: AVC
Формат/Информация: Advanced Video Codec
Профиль формата:
Параметр CABAC формата: Да
Параметр ReFrames формата: 3 кадра
Идентификатор кодека: V_MPEG4/ISO/AVC
Продолжительность: 1 ч. 29 м.
Битрейт: 1900 Кбит/сек
Ширина: 720 пикс.
Высота: 576 пикс.
Соотношение сторон: 4:3
Режим частоты кадров: Переменный
Частота кадров: 25,000 кадр/сек
Стандарт вещания: PAL
Цветовое пространство: YUV
Подвыборка цветности: 4:2:0
Битовая глубина: 8 бит
Тип развёртки: MBAFF
Бит/(Пиксели*Кадры): 0.183
Размер потока: 1,15 Гбайт (89%)
Библиотека кодирования: x264 core 116 r2019M 9cc407d
Настройки программы: cabac=1 / ref=3 / deblock=1:0:0 / analyse=0x3:0x133 / me=dia / subme=5 / psy=1 / psy_rd=1.00:0.20 / mixed_ref=1 / me_range=16 / chroma_me=1 / trellis=0 / 8x8dct=1 / cqm=0 / deadzone=21,11 / fast_pskip=1 / chroma_qp_offset=0 / threads=6 / sliced_threads=0 / nr=0 / decimate=1 / interlaced=tff / bluray_compat=0 / constrained_intra=0 / bframes=3 / b_pyramid=1 / b_adapt=0 / b_bias=0 / direct=3 / weightb=1 / open_gop=0 / weightp=0 / keyint=250 / keyint_min=25 / scenecut=40 / intra_refresh=0 / rc_lookahead=40 / rc=abr / mbtree=1 / bitrate=1900 / ratetol=1.0 / qcomp=0.60 / qpmin=10 / qpmax=51 / qpstep=4 / ip_ratio=1.40 / aq=1:1.00

Аудио
Идентификатор: 2
Формат: AC-3
Формат/Информация: Audio Coding 3
Расширение режима: CM (complete main)
Идентификатор кодека: A_AC3
Продолжительность: 1 ч. 29 м.
Вид битрейта: Постоянный
Битрейт: 192 Кбит/сек
Каналы: 2 канала
Расположение каналов: Front: L R
Частота: 48,0 КГц
Битовая глубина: 16 бит
Метод сжатия: С потерями
Размер потока: 122 Мбайт (9%)
Язык: Russian















Поделиться:



Вернуться к началу
 Профиль Отправить личное сообщение  
 
   Похожие торренты   Автор   Торрент   Размер 
В этой теме нет новых непрочитанных сообщений. Путешествия Гулливера / Gulliver's Travels [Фэнтези, приключения, семейный, 1996] DVDRip, Mvo

salma3

39 | 13

2.19 ГБ

В этой теме нет новых непрочитанных сообщений. Орёл и Решка. Рай и Ад [S13] ( Реалити-шоу, путешествия, познавательный, 2017) WEBRip 720p от New-Team

marya111

139 | 48

2.43 ГБ

В этой теме нет новых непрочитанных сообщений. Непутевые заметки с Дмитрием Крыловым [01-03] (Документальный, познавательный, путешествие, туризм, 2017) HDTVRip от Files-х

marya111

32 | 5

567.35 МБ

В этой теме нет новых непрочитанных сообщений. Непутевые заметки с Дмитрием Крыловым [01-03] ( Документальный, познавательный, путешествие, туризм, 2017) HDTVRip от Files-х

marya111

15 | 3

947.26 МБ

В этой теме нет новых непрочитанных сообщений. Австралия / Australia [Драма, мелодрама, приключения, 2008] BDRemux 1080p, Dub

salma3

3 | 3

27.88 ГБ

В этой теме нет новых непрочитанных сообщений. Австралия / Australia [драма, мелодрама, приключения, 2008] BDRip-HEVC 1080p, Dub

salma3

0 | 0

10.74 ГБ

В этой теме нет новых непрочитанных сообщений. National Geographic. Анаконда. Тихий убийца / Anaconda. Silent killer [Документальный, путешествия, природа, 2014] HDTV 1080i, Dub

salma3

84 | 54

3.17 ГБ


Начать новую тему Ответить на тему  [ 1 сообщение ] 




Для Мосгорсуда, Роскомнадзора и рекламодателей:: mosgorsud-torrent[собачка]yandex.ru
cron