Торрент файл
скачать торрент магнет ссылка Добавлен: 11 дек 2011, 01:02
Размер: 1.33 ГБ
Сидеров: 12
Личеров: 6
Автор

СообщениеДобавлено: 11 дек 2011, 01:02 

Не в сети
Супермодератор
Аватара пользователя
Дата регистрации:
22 май 2010, 11:03
Возраст: 33
Спасибо: 7742 / 13
Сообщения: 49837
Коллекция "Золотой глобус". Фильм 56 - Швеция. Прекрасное и богатое королевство


Перевод: Профессиональный (полное дублирование), cубтитры: отсутствуют
Формат: DVDRip-AVC, MKV, H.264, AC3

Страна: Германия, Польша, Россия
Режиссер: Майкл Линдер
Жанр: путешествия и туризм

Продолжительность: 01:31:30
Год выпуска: 2010

Описание: Незабываемые пейзажи, бескрайние просторы, атмосфера покоя, уюта и благополучия... Добро пожаловать в Швецию! Эта северная страна, известная нам по книгам Астрид Линдгрен и магазинам ИКЕА, таит в себе массу приятных сюрпризов. Наше путешествие мы начнем с Мальме, третьего по величине города королевства Швеция, где осмотрим чудесный исторический центр со зданиями XVI века. Мы заглянем в Фотевикен, воссозданное в наши дни поселение викингов, где убедимся в том, что древние воины были также и превосходными ремесленниками и строителями. Затем нас ждет путь в Смоланд, южную провинцию, знаменитую чудесными пляжами, и на остров Готланд с его красивой столицей Висби. Далее мы прибудем в Стокгольм — город на островах, который прозвали «Северной Венецией», где осмотрим средневековый центр Гамла Стан, а также многочисленные острова, окружающие шведскую столицу и образующие Стокгольмский архипелаг. Заглянем мы и в Уппсалу, знаменитую старейшим университетом, основанным в 1477 году. Затем наш путь лежит в северные поселения, где мы познакомимся с саами — народом, живущим в самых холодных регионах Швеции. Завершим наше путешествие мы в Гётеборге, крупном портовом и университетском городе, расположенном на Гёта-канале.

Видео: 720x544 (1.32:1), 25.000 fps, AVC(х264), , ~ 1888 Kbps, 0.193 bit/pixel
Аудио: 48 kHz, AС3 Dolby Digital, 2 ch (L, R), ~ 192 kbps avg

Релиз группа: Автор:


Формат: Matroska
Версия формата: Version 2
Размер файла: 1,33 Гбайт
Продолжительность: 1 ч. 31 м.
Общий поток: 2081 Кбит/сек
Программа кодирования: XviD4PSP 6.0 / 53.6.0
Библиотека кодирования: XviD4PSP 6.0 / 53.6.0

Видео
Идентификатор: 1
Формат: AVC
Формат/Информация: Advanced Video Codec
Профиль формата:
Параметр CABAC формата: Да
Параметр ReFrames формата: 3 кадра
Идентификатор кодека: V_MPEG4/ISO/AVC
Продолжительность: 1 ч. 31 м.
Битрейт: 1888 Кбит/сек
Ширина: 720 пикс.
Высота: 544 пикс.
Соотношение сторон: 16:9
Соотношение сторон в оригинале: 16:9
Режим частоты кадров: Переменный
Частота кадров: 25,000 кадр/сек
Цветовое пространство: YUV
Подвыборка цветности: 4:2:0
Битовая глубина: 8 бит
Тип развёртки: MBAFF
Бит/(Пиксели*Кадры): 0.193
Размер потока: 1,18 Гбайт (89%)
Библиотека кодирования: x264 core 116 r2019M 9cc407d
Настройки программы: cabac=1 / ref=3 / deblock=1:-1:-1 / analyse=0x3:0x133 / me=hex / subme=7 / psy=1 / psy_rd=1.00:0.15 / mixed_ref=1 / me_range=16 / chroma_me=1 / trellis=1 / 8x8dct=1 / cqm=0 / deadzone=21,11 / fast_pskip=1 / chroma_qp_offset=-3 / threads=6 / sliced_threads=0 / nr=0 / decimate=1 / interlaced=tff / bluray_compat=0 / constrained_intra=0 / bframes=3 / b_pyramid=1 / b_adapt=2 / b_bias=0 / direct=3 / weightb=1 / open_gop=0 / weightp=0 / keyint=250 / keyint_min=25 / scenecut=40 / intra_refresh=0 / rc_lookahead=40 / rc=abr / mbtree=1 / bitrate=1888 / ratetol=1.0 / qcomp=0.60 / qpmin=10 / qpmax=51 / qpstep=4 / ip_ratio=1.40 / aq=1:1.00

Аудио
Идентификатор: 2
Формат: AC-3
Формат/Информация: Audio Coding 3
Расширение режима: CM (complete main)
Идентификатор кодека: A_AC3
Продолжительность: 1 ч. 31 м.
Вид битрейта: Постоянный
Битрейт: 192 Кбит/сек
Каналы: 2 канала
Расположение каналов: Front: L R
Частота: 48,0 КГц
Битовая глубина: 16 бит
Метод сжатия: С потерями
Размер потока: 126 Мбайт (9%)
Язык: Russian













Поделиться:



Вернуться к началу
 Профиль Отправить личное сообщение  
 
   Похожие торренты   Автор   Торрент   Размер 
В этой теме нет новых непрочитанных сообщений. Путешествия Гулливера / Gulliver's Travels [Фэнтези, приключения, семейный, 1996] DVDRip, Mvo

salma3

39 | 13

2.19 ГБ

В этой теме нет новых непрочитанных сообщений. Орёл и Решка. Рай и Ад [S13] ( Реалити-шоу, путешествия, познавательный, 2017) WEBRip 720p от New-Team

marya111

139 | 48

2.43 ГБ

В этой теме нет новых непрочитанных сообщений. Непутевые заметки с Дмитрием Крыловым [01-03] ( Документальный, познавательный, путешествие, туризм, 2017) HDTVRip от Files-х

marya111

15 | 3

947.26 МБ

В этой теме нет новых непрочитанных сообщений. Непутевые заметки с Дмитрием Крыловым [01-03] (Документальный, познавательный, путешествие, туризм, 2017) HDTVRip от Files-х

marya111

32 | 5

567.35 МБ

В этой теме нет новых непрочитанных сообщений. National Geographic. Анаконда. Тихий убийца / Anaconda. Silent killer [Документальный, путешествия, природа, 2014] HDTV 1080i, Dub

salma3

84 | 54

3.17 ГБ

В этой теме нет новых непрочитанных сообщений. Discovery. Звездное выживание с Беаром Гриллсом / Running Wild Bear Grylls [03x01] [природа, путешествия, экстрим, 2016] HDTVRip, Dvo

salma3

25 | 35

1 ГБ

В этой теме нет новых непрочитанных сообщений. National Geographic: Удивительные обитатели Тайваня / National Geographic: Taiwan's Amazing Creatures [2011, Документальный, флора, фауна, путешествия, SATRip] DUB

salma3

0 | 4

568.3 МБ


Начать новую тему Ответить на тему  [ 1 сообщение ] 




Для Мосгорсуда, Роскомнадзора и рекламодателей:: mosgorsud-torrent[собачка]yandex.ru
cron