Торрент файл
скачать торрент магнет ссылка Добавлен: 18 мар 2015, 22:16
Размер: 167.74 МБ
Сидеров: 25
Личеров: 12
Автор

СообщениеДобавлено: 18 мар 2015, 22:16 

Не в сети
Дата регистрации:
27 апр 2014, 21:05
Спасибо: 11 / 0
Сообщения: 65
Как Украине освободиться от оккупантов
Перевод: Не требуется, cубтитры: отсутствуют
Формат: WEBRip, AVI, DivX, MP3
Страна: Россия
Режиссер: Алексей Меняйлов
Жанр: исторический
Продолжительность: 00:14:19
Год выпуска: 2015

Описание: Нет ничего нового под солнцем, всё уже было прежде в веках. В разные времена, в разных местах оккупанты действовали одинаково. Они не запрещали и даже финансировали многие религии, за исключением одной - Культа Земли.

Видео: 720x406 (1.77:1), 30 fps, DivX Codec 4.x ~1432 kbps avg, 0.16 bit/pixel
Аудио: 48 kHz, MPEG Layer 3, 2 ch, ~192.00 kbps avg

Доп. информация: Партизанская правда партизан


General
Формат : AVI
Формат/Информация : Audio Video Interleave
Размер файла : 168 MiB
Продолжительность : 14mn 19s
Общий поток : 1 636 Kbps

Video
Идентификатор : 0
Формат : MPEG-4 Visual
Параметр BVOP формата : 1
Параметр QPel формата : No
Параметр GMC формата : No warppoints
Параметр матрицы формата : Default (H.263)
Режим смешивания : Packed bitstream
Идентификатор кодека : DX50
Идентификатор кодека/Подсказка : DivX 5
Продолжительность : 14mn 19s
Битрейт : 1 433 Kbps
Ширина : 720 pixels
Высота : 406 pixels
Соотношение сторон : 16:9
Частота кадров : 30.000 fps
Цветовое пространство : YUV
Субдискретизация насыщенности : 4:2:0
Битовая глубина : 8 bits
Тип развёртки : Progressive
Метод сжатия : Lossy
Бит/(Пиксели*Кадры) : 0.163
Размер потока : 147 MiB (88%)
Заголовок : Video
Библиотека кодирования : DivX 2682

Audio
Идентификатор : 1
Формат : MPEG Audio
Версия формата : Version 1
Профиль формата : Layer 3
Режим : Joint stereo
Расширение режима : MS Stereo
Идентификатор кодека : 55
Идентификатор кодека/Подсказка : MP3
Продолжительность : 14mn 19s
Вид битрейта : Constant
Битрейт : 192 Kbps
Каналы : 2 channels
Частота : 48.0 KHz
Метод сжатия : Lossy
Размер потока : 19.7 MiB (12%)
Выравнивание : Split accross interleaves
Продолжительность промежутка : 33 ms (1.00 video frame)
Время предзагрузки промежутка : 500 ms
Заголовок : Audio - en-US01









Вернуться к началу
 Профиль Отправить личное сообщение  
 
   Похожие торренты   Автор   Торрент   Размер 
В этой теме нет новых непрочитанных сообщений. Сталин и Зоя: трудное решение (Алексей Меняйлов) [2012, документальный, WEBRip]

salma3

0 | 1

462.35 МБ

В этой теме нет новых непрочитанных сообщений. Как вернуть возлюбленного (Алексей Меняйлов) [2016, История, психология, самиздат, WEBRip]

vairgin

6 | 4

70.48 МБ

В этой теме нет новых непрочитанных сообщений. Загадка “Бриллиантовой руки” (Алексей Меняйлов) [2016, Комедия, психология, самиздат, WEBRip]

vairgin

19 | 10

68.87 МБ

В этой теме нет новых непрочитанных сообщений. Главная обязанность дона Корлеоне (Алексей Меняйлов) [2017, психология, самиздат, WEBRip]

vairgin

9 | 4

248.34 МБ

В этой теме нет новых непрочитанных сообщений. Как узнать тайную мечту своей девушки? (Алексей Меняйлов) [2016, Комедия, психология, самиздат, WEBRip]

vairgin

4 | 2

131.76 МБ

В этой теме нет новых непрочитанных сообщений. Почему немцы не переименовали Сталино в Донецк? (Алексей Меняйлов) [2013, Война, история, самиздат, WEBRip]

vairgin

51 | 15

45.58 МБ

В этой теме нет новых непрочитанных сообщений. Секреты успеха от лучших советских актеров (Алексей Меняйлов) [2012, Война, психология, самиздат, WEBRip]

vairgin

17 | 7

128.58 МБ


СообщениеДобавлено: 14 ноя 2016, 03:34 

Не в сети
Аватара пользователя
Дата регистрации:
04 ноя 2016, 19:07
Возраст: 36
Спасибо: 0 / 0
Сообщения: 104
Откуда: Madagascar
It agree, a useful idea

_________________
fat burning food


Вернуться к началу
 Профиль Отправить личное сообщение  
 
Начать новую тему Ответить на тему  [ Сообщений: 2 ] 




Для Мосгорсуда, Роскомнадзора и рекламодателей:: mosgorsud-torrent[собачка]yandex.ru
cron