Торрент файл
скачать торрент магнет ссылка Добавлен: 12 авг 2016, 21:40
Размер: 1.29 ГБ
Сидеров: 15
Личеров: 3
Автор

СообщениеДобавлено: 12 авг 2016, 21:40 

Не в сети
Супермодератор
Аватара пользователя
Дата регистрации:
15 фев 2012, 16:44
Возраст: 29
Спасибо: 7400 / 2147
Сообщения: 78391
Эммануэль 6 / Emmanuelle 6

Перевод: Профессиональный (двухголосый)
Субтитры: отсутствуют
Формат: DVDRip, MKV, H.264, AC3
Страна: Франция
Режиссер: Бруно Зинконе, Жан Роллен
Жанр: драма, мелодрама
Продолжительность: 01:19:03
Год выпуска: 1988

В ролях: Натали Уэр,Жан-Рене Госсар,Томас Обермюллер,Густаво Родригес,Франсуа Гуерра,Луис Карлос Мендез,Тамира,Дагмар Бергер,Эдда Копке,Рания Раджа.

Описание: Эммануэль отправляется в круиз по Карибскому морю на роскошном лайнере вместе с целой командой восхитительных топ — моделей. Они проводят шоу высокой моды. Роберт, молодой детектив из страхового агентства, стремится видеть Эммануэль как можно чаще, и не только из — за ее красоты.
Он отвечает за сохранность драгоценностей, которые надевают модели, участвуя в шоу. Несмотря на его неусыпное бдение, один из офицеров круизного корабля организует похищение Эммануэль, и она вместе с девушками попадает в руки беспщадных пиратов. Начинается захватывающая одиссея в экзотических джунглях Венесуэлы.




Видео: 720x536 (4:3), 23,976 fps, MPEG4 AVC (x264), ~1578 Kbps avg, 0.170 bit/pixel
Аудио#1: Русский 48 kHz, AC3, 2 ch ~ 192 Kbps [Профессиональный (двухголосый)]
Аудио#2: Русский 48 kHz, AC3, 2 ch ~ 192 Kbps [Профессиональный (многоголосый, закадровый)]
Аудио#3: Русский 48 kHz, AC3, 2 ch ~ 192 Kbps [Авторский (одноголосый)(Дольский)]
Аудио#4: Английский 48 kHz, AC3, 2 ch ~ 192 Kbps [Оригинал]


Общее
Уникальный идентификатор : 211167960024794575104469825192335083935 (0x9EDD784194D2D676B8B2FAD213A9899F)
Полное имя : F:\TREKER\ТЕМР\emmanuelle_6_[tfile.ru].mkv
Формат : Matroska
Версия формата : Version 2
Размер файла : 1,29 Гбайт
Продолжительность : 1 ч. 19 м.
Общий поток : 2335 Кбит/сек
Название фильма : emmanuelle_6_[tfile.ru]
Дата кодирования : UTC 2016-04-16 17:31:29
Программа кодирования : mkvmerge v4.0.0 ('The Stars were mine') сборка от Jun 6 2010 16:18:42
Библиотека кодирования : libebml v1.0.0 + libmatroska v1.0.0
Attachements : cover.jpg

Видео
Идентификатор : 1
Формат : AVC
Формат/Информация : Advanced Video Codec
Профиль формата :
Параметр CABAC формата : Да
Параметр ReFrames формата : 6 кадров
Идентификатор кодека : V_MPEG4/ISO/AVC
Продолжительность : 1 ч. 19 м.
Битрейт : 1570 Кбит/сек
Ширина : 720 пикселей
Высота : 536 пикселей
Соотношение сторон : 4:3
Режим частоты кадров : Постоянный
Частота кадров : 23,976 кадра/сек
Цветовое пространство : YUV
Субдискретизация насыщенности : 4:2:0
Битовая глубина : 8 бит
Тип развёртки : Прогрессивная
Бит/(Пиксели*Кадры) : 0.170
Размер потока : 860 Мбайт (65%)
Заголовок : emmanuelle_6_[tfile.ru]
Библиотека кодирования : x264 core 146 r2538 121396c
Настройки программы : cabac=1 / ref=6 / deblock=1:-1:-1 / analyse=0x3:0x133 / me=umh / subme=10 / psy=1 / psy_rd=1.00:0.15 / mixed_ref=1 / me_range=24 / chroma_me=1 / trellis=2 / 8x8dct=1 / cqm=0 / deadzone=21,11 / fast_pskip=0 / chroma_qp_offset=-3 / threads=12 / lookahead_threads=1 / sliced_threads=0 / nr=0 / decimate=1 / interlaced=0 / bluray_compat=0 / constrained_intra=0 / bframes=3 / b_pyramid=2 / b_adapt=2 / b_bias=0 / direct=1 / weightb=1 / open_gop=0 / weightp=2 / keyint=250 / keyint_min=23 / scenecut=40 / intra_refresh=0 / rc_lookahead=50 / rc=abr / mbtree=1 / bitrate=1570 / ratetol=1.0 / qcomp=0.69 / qpmin=0 / qpmax=69 / qpstep=4 / ip_ratio=1.40 / aq=1:1.00
Язык : efi
Default : Нет
Forced : Нет

Аудио #1
Идентификатор : 2
Формат : AC-3
Формат/Информация : Audio Coding 3
Расширение режима : CM (complete main)
Параметр Endianness формата : Big
Идентификатор кодека : A_AC3
Продолжительность : 1 ч. 19 м.
Вид битрейта : Постоянный
Битрейт : 192 Кбит/сек
Каналы : 2 канала
Расположение каналов : Front: L R
Частота : 48,0 КГц
Метод сжатия : С потерями
Размер потока : 109 Мбайт (8%)
Заголовок : Профессиональный (двухголосый)
Язык : Russian
Default : Нет
Forced : Да

Аудио #2
Идентификатор : 3
Формат : AC-3
Формат/Информация : Audio Coding 3
Расширение режима : CM (complete main)
Параметр Endianness формата : Big
Идентификатор кодека : A_AC3
Продолжительность : 1 ч. 19 м.
Вид битрейта : Постоянный
Битрейт : 192 Кбит/сек
Каналы : 2 канала
Расположение каналов : Front: L R
Частота : 48,0 КГц
Метод сжатия : С потерями
Размер потока : 109 Мбайт (8%)
Заголовок : Профессиональный (многоголосый, закадровый)
Язык : Russian
Default : Нет
Forced : Нет

Аудио #3
Идентификатор : 4
Формат : AC-3
Формат/Информация : Audio Coding 3
Расширение режима : CM (complete main)
Параметр Endianness формата : Big
Идентификатор кодека : A_AC3
Продолжительность : 1 ч. 19 м.
Вид битрейта : Постоянный
Битрейт : 192 Кбит/сек
Каналы : 2 канала
Расположение каналов : Front: L R
Частота : 48,0 КГц
Метод сжатия : С потерями
Размер потока : 109 Мбайт (8%)
Заголовок : Авторский (одноголосый)( Дольский)
Язык : Russian
Default : Нет
Forced : Нет

Аудио #4
Идентификатор : 5
Формат : AC-3
Формат/Информация : Audio Coding 3
Расширение режима : CM (complete main)
Параметр Endianness формата : Big
Идентификатор кодека : A_AC3
Продолжительность : 1 ч. 19 м.
Вид битрейта : Постоянный
Битрейт : 192 Кбит/сек
Каналы : 2 канала
Расположение каналов : Front: L R
Частота : 48,0 КГц
Метод сжатия : С потерями
Размер потока : 109 Мбайт (8%)
Заголовок : Оригинал
Язык : English
Default : Нет
Forced : Нет

Меню
00:00:00.000 : en:Chapter 1
00:03:21.334 : en:Chapter 2
00:07:18.801 : en:Chapter 3
00:10:49.968 : en:Chapter 4
00:14:18.602 : en:Chapter 5
00:16:52.369 : en:Chapter 6
00:19:48.303 : en:Chapter 7
00:22:52.970 : en:Chapter 8
00:26:11.704 : en:Chapter 9
00:29:17.605 : en:Chapter 10
00:32:26.939 : en:Chapter 11
00:36:15.072 : en:Chapter 12
00:38:37.940 : en:Chapter 13
00:41:13.741 : en:Chapter 14
00:44:24.642 : en:Chapter 15
00:47:33.142 : en:Chapter 16
00:49:05.976 : en:Chapter 17
00:53:14.410 : en:Chapter 18
00:57:41.677 : en:Chapter 19
01:00:55.144 : en:Chapter 20
01:04:17.945 : en:Chapter 21
01:08:45.379 : en:Chapter 22
01:10:45.213 : en:Chapter 23
01:13:32.413 : en:Chapter 24












_________________
Проголосуй за трекер Открытый торрент трекер - RUS-MEDIA.ORG

Проголосуй Открытый торрент трекер - RUS-MEDIA.ORG


Вернуться к началу
 Профиль Отправить личное сообщение  
 
   Похожие торренты   Автор   Торрент   Размер 
В этой теме нет новых непрочитанных сообщений. Двое и одна [драма, мелодрама, 1988] DVDRip

salma3

2 | 3

1.37 ГБ

В этой теме нет новых непрочитанных сообщений. Заря / The Dawning [драма, мелодрама, триллер, 1988] DVDRip, Mvo

salma3

33 | 6

1.46 ГБ

В этой теме нет новых непрочитанных сообщений. Летняя история / A Summer Story [драма, мелодрама, 1988] DVDRip, Avo

salma3

0 | 0

1.42 ГБ

В этой теме нет новых непрочитанных сообщений. Кровавые деньги / Clinton and Nadine [боевик, триллер, драма, мелодрама, криминал, 1988] DVDRip, Avo

salma3

2 | 3

1.45 ГБ

В этой теме нет новых непрочитанных сообщений. Тройное преступление / Baton Rouge [мелодрама, детектив, криминал, 1988] DVDRip, Avo

salma3

9 | 2

1.37 ГБ

В этой теме нет новых непрочитанных сообщений. Модернисты / The Moderns [драма, мелодрама, комедия, 1988] HDRip, Dub

salma3

0 | 1

2.18 ГБ

В этой теме нет новых непрочитанных сообщений. Турист поневоле / The Accidental Tourist [драма, мелодрама, 1988] HDRip, Dvo

salma3

70 | 29

1.45 ГБ


СообщениеДобавлено: 24 авг 2016, 03:26 

Не в сети
Дата регистрации:
14 авг 2016, 09:43
Возраст: 41
Спасибо: 0 / 0
Сообщения: 1
Откуда: Chile
Добрый день господа!



Наша компания занимается свыше 10 лет продажей изделий из стекла в городе Минске.Вот основные виды подукции ,которую мы можем предложить вам:

1)Стеклянные двери –это распашные,раздвижные двери и входные группы. Стеклянные двери преображают и визуально расширяют помещение. Оригинальный внешний вид и визуальная легкость дверей из стекла подойдут к любому интерьеру.

2)Стеклянные козырьки-такие как козырьки на растяжках,козырьки в триплекс. Стеклянные козырьки приобретают по той причине, что они не только защищают входную дверь от погодных сюрпризов, но и элегантно смотрятся на любом фасаде.

3)Стеклянные перегородки –они включают в себя офисные перегородки,перегородки для банков,душевые перегородки и перегородки в интерьер. Стеклянные перегородки становятся неотъемлемой частью современных офисов, торговых центров, развлекательных и спортивных учреждений. Перегородки из стекла придают прозрачность помещениям любой планировки.

4)Стеклянные лестницы -стеклянные лестницы и лестничные ограждения из стекла, а также ограждения балконов и второго света — это прекрасное, современное решение, как для офисных и развлекательных центров, так и для дач или частных домов.
Нам будет приятно видеть у нас на сайте НАЖМИТЕ ССЫЛКУ


двери стекло
стеклянная перегородка для душа
дверь из стекла цена
лестницы стеклянные
стеклянные перегородки цена минск
стеклянные двери и перегородки
лестничное стеклянное ограждение
Панно стеклянные
Раздвижные стеклянные двери минск
дверь стеклянная в минске
купить двери в минске
офисные перегородки в минске
межкомнатные двери стеклянные
стеклянные столы минск
стеклянные двери цены минск
стеклянные двери в минске фото
купить душевые двери в минске
пано
стеклянные перегородки на заказ
стеклянная перегородка в душевую
перегородки в комнате из стекла
стеклянная дверь в парную минск
сантехнические стеклянные перегородки
стеклянные перегородки в квартире фото
душевое ограждение на заказ
Стеклянные козырьки минск
перегородки из стекла раздвижные
изготовление стеклянных дверей в минске
двери межкомнатные с зеркалом купить
дверь в душ стеклянная купить


Вернуться к началу
 Профиль Отправить личное сообщение  
 
Начать новую тему Ответить на тему  [ Сообщений: 2 ] 




Для Мосгорсуда, Роскомнадзора и рекламодателей:: mosgorsud-torrent[собачка]yandex.ru
cron