Торрент файл
скачать торрент магнет ссылка Добавлен: 04 фев 2018, 02:45
Размер: 2.31 ГБ
Сидеров: 24
Личеров: 9
Автор

СообщениеДобавлено: 04 фев 2018, 02:45 

Не в сети
Супермодератор
Аватара пользователя
Дата регистрации:
15 фев 2012, 16:44
Возраст: 29
Спасибо: 7437 / 2147
Сообщения: 80437
Сексуальные воительницы / Sexy Warriors


Перевод: Любительский (одноголосый), cубтитры: отсутствуют
Формат: SATRip, MKV, H.264, AC3
Страна: США
Режиссер: Дин МакКендрик
Жанр: Эротика, комедия
Продолжительность: 01:26:16
Год выпуска: 2014

В ролях:
Эрика Джордан, Кристин Нгуйен, Мисти Стоун, Алекс Найт, Вуду, Брэндон Ракдашел, Тед Ньюсом

Описание:
Таинственный шар Этоса потревожен двумя воюющими амазонками, с помощью его волшебства они переносятся из их примитивного острова тёмных времён в современный мир Лос-Анджелеса. Потерянные во времени они продолжают охоту друг на друга, пытаясь окончательно урегулировать свой смертельный спор. Их желание сражаться только подкрепляется новыми формами удовольствия и соблазна, которые они находят в современном мире.



Видео: 1280x720p (16:9), 23.976 fps, AVC MPEG-4 (x264), , ~ 3356 Kbps avg, 0.152 bit/pixel
Аудио 1: Русский:48 kHz, AC3 Dolby Digital, 2/0 (L,R) ch ~256 kbps avg
Аудио 2: Английский:48 kHz, AC3 Dolby Digital, 2/0 (L,R) ch ~384 kbps avg

Реклама отсутствует.

Семпл

General
Unique ID : 199784961255856888983105505860272627873 (0x964D2F162C669A44B7F4AEE10741A0A1)
Complete name : O:\!! TV DEMUX\SEXY WARRIORS (2014).mkv
Format : Matroska
Format version : Version 2
File size : 2.31 GiB
Duration : 1h 21mn
Overall bit rate : 4 078 Kbps
Encoded date : UTC 2018-01-19 14:29:43
Writing application : mkvmerge v5.8.0 ('No Sleep / Pillow') built on Sep 2 2012 15:37:04
Writing library : libebml v1.2.3 + libmatroska v1.3.0
DURATION : 01:21:16.256000000
NUMBER_OF_FRAMES : 152383
NUMBER_OF_BYTES : 234060288
_STATISTICS_WRITING_APP : mkvmerge v15.0.0 ('Duel with the Devil') 64-bit
_STATISTICS_WRITING_DATE_UTC : 2017-09-14 13:06:08
_STATISTICS_TAGS : BPS DURATION NUMBER_OF_FRAMES NUMBER_OF_BYTES

Video
ID : 1
Format : AVC
Format/Info : Advanced Video Codec
Format profile :
Format settings, CABAC : Yes
Format settings, ReFrames : 5 frames
Muxing mode : Header stripping
Codec ID : V_MPEG4/ISO/AVC
Duration : 1h 21mn
Bit rate : 3 356 Kbps
Width : 1 280 pixels
Height : 720 pixels
Display aspect ratio : 16:9
Frame rate : 23.976 fps
Color space : YUV
Chroma subsampling : 4:2:0
Bit depth : 8 bits
Scan type : Progressive
Bits/(Pixel*Frame) : 0.152
Stream size : 1.91 GiB (82%)
Writing library : x264 core 152 r2851 ba24899
Encoding settings : cabac=1 / ref=5 / deblock=1:-1:-1 / analyse=0x3:0x113 / me=hex / subme=8 / psy=1 / psy_rd=1.00:0.15 / mixed_ref=1 / me_range=16 / chroma_me=1 / trellis=2 / 8x8dct=1 / cqm=0 / deadzone=21,11 / fast_pskip=1 / chroma_qp_offset=-3 / threads=22 / lookahead_threads=3 / sliced_threads=0 / nr=0 / decimate=1 / interlaced=0 / bluray_compat=0 / constrained_intra=0 / bframes=3 / b_pyramid=2 / b_adapt=1 / b_bias=0 / direct=3 / weightb=1 / open_gop=0 / weightp=2 / keyint=240 / keyint_min=23 / scenecut=40 / intra_refresh=0 / rc_lookahead=50 / rc=crf / mbtree=1 / crf=17.0 / qcomp=0.60 / qpmin=0 / qpmax=69 / qpstep=4 / ip_ratio=1.40 / aq=1:1.00
Language : English
Default : Yes
Forced : No
DURATION : 01:21:16.413000000
NUMBER_OF_FRAMES : 116917
NUMBER_OF_BYTES : 2094880197
_STATISTICS_WRITING_APP : mkvmerge v15.0.0 ('Duel with the Devil') 64-bit
_STATISTICS_WRITING_DATE_UTC : 2017-09-14 13:06:08
_STATISTICS_TAGS : BPS DURATION NUMBER_OF_FRAMES NUMBER_OF_BYTES

Audio #1
ID : 2
Format : AC-3
Format/Info : Audio Coding 3
Mode extension : CM (complete main)
Format settings, Endianness : Big
Muxing mode : Header stripping
Codec ID : A_AC3
Duration : 1h 21mn
Bit rate mode : Constant
Bit rate : 256 Kbps
Channel(s) : 2 channels
Channel positions : Front: L R
Sampling rate : 48.0 KHz
Bit depth : 16 bits
Compression mode : Lossy
Stream size : 149 MiB (6%)
Language : Russian
Default : No
Forced : No

Audio #2
ID : 3
Format : AC-3
Format/Info : Audio Coding 3
Mode extension : CM (complete main)
Format settings, Endianness : Big
Muxing mode : Header stripping
Codec ID : A_AC3
Duration : 1h 21mn
Bit rate mode : Constant
Bit rate : 384 Kbps
Channel(s) : 2 channels
Channel positions : Front: L R
Sampling rate : 48.0 KHz
Bit depth : 16 bits
Compression mode : Lossy
Delay relative to video : 28ms
Stream size : 223 MiB (9%)
Language : English
Default : No
Forced : No








_________________
Проголосуй за трекер Открытый торрент трекер - RUS-MEDIA.ORG

Проголосуй Открытый торрент трекер - RUS-MEDIA.ORG


Вернуться к началу
 Профиль Отправить личное сообщение  
 
   Похожие торренты   Автор   Торрент   Размер 
В этой теме нет новых непрочитанных сообщений. После секса / После соития / Post coitum [Эротика, комедия, 2004] DVDRip-AVC, Avo

salma3

189 | 17

2.18 ГБ

В этой теме нет новых непрочитанных сообщений. Подглядывающий / L'uomo che guarda [Драма, эротика, 1994] BDRip, Dvo

salma3

147 | 21

1.46 ГБ

В этой теме нет новых непрочитанных сообщений. Подглядывающий на пляже / Voyeur beach [Эротика, Триллер, 2002] DVDRip, Mvo

salma3

23 | 1

1.37 ГБ

В этой теме нет новых непрочитанных сообщений. Ключ / La Chiave [Драма, эротика, экранизация, 1983] Blu-Ray Remux 1080p, Dvo

salma3

15 | 4

23.33 ГБ


Начать новую тему Ответить на тему  [ 1 сообщение ] 




Для Мосгорсуда, Роскомнадзора и рекламодателей:: mosgorsud-torrent[собачка]yandex.ru
cron