Торрент файл
скачать торрент магнет ссылка Добавлен: 18 окт 2018, 20:50
Размер: 24.47 ГБ
Сидеров: 0
Личеров: 0
Статус: (salma3)
Автор

СообщениеДобавлено: 18 окт 2018, 20:50 

В сети
Супермодератор
Аватара пользователя
Дата регистрации:
15 фев 2012, 16:44
Возраст: 29
Спасибо: 7401 / 2147
Сообщения: 78582
Год выхода: 2000
Жанр: Эротика, мелодрамма
Режиссер: Тинто Брасс

В ролях: Юлия Майарчук, Ярно Берарди, Франческа Нунци, Макс Пароди, Мауро Лоренц, Лейла Карли, Витторио Аттене, Антонио Салинес

О фильме:
Паола - прелестная 20-летняя девушка, веселая, энергичная и, разумеется, очень сексуальная. Паола приехала в Лондон из солнечной Венеции, чтобы освоить курс "полного погружения" в английский язык. Во время поисков жилья она знакомится с владелицей агентства недвижимости, которая вместе со своим мужем делают недвусмысленные попытки перевести чисто деловые отношения в откровенно сексуальные и предлагают Паоле свою "программу обучения". Соблазн оказывается столь велик, что Паоле придется нарушить немало запретов своего жениха, оставшегося в Италии!



Страна: Италия
Продолжительность: 01:30:37
Перевод: Профессиональный (многоголосый, закадровый)
Субтитры: Русские (full), Английские (full, SDH)

Файл
Качество: BDRemux 1080p
Видео: AVC/H.264, 1920x1080, ~35.0 Mpbs
Аудио 1: AC3, 2 ch, 256 Kbps | русский MVO, R5
Аудио 2: PCM, 2 ch, 1536 Kbps | английский
Аудио 3: DTS-HD MA, 6 ch, 2034 Kbps | итальянский

Общее
Уникальный идентификатор : 134211793158726308260471870831383136130 (0x64F8404A47CB7A0A35BBA2474485C782)
Полное имя : Cheeky!.2000.BDRemux.1080p.Rus.Eng.Ita.mkv
Формат : Matroska
Версия формата : Version 4
Размер файла : 24,5 Гбайт
Продолжительность : 1 ч. 30 м.
Режим общего битрейта : Переменный
Общий поток : 38,6 Мбит/сек
Дата кодирования : UTC 2018-10-15 06:24:36
Программа кодирования : mkvmerge v27.0.0 ('Metropolis') 64-bit
Библиотека кодирования : libebml v1.3.6 + libmatroska v1.4.9
Attachments : cdb288784a41d3cc11c2951642c80397.jpg

Видео
Идентификатор : 1
Формат : AVC
Формат/Информация : Advanced Video Codec
Профиль формата : High@L4.1
Настройки формата : CABAC / 4 Ref Frames
Параметр CABAC формата : Да
Параметр RefFrames формата : 4 кадра
Параметр GOP формата : M=3, N=12
Идентификатор кодека : V_MPEG4/ISO/AVC
Продолжительность : 1 ч. 30 м.
Вид битрейта : Постоянный
Битрейт : 35,0 Мбит/сек
Ширина : 1920 пикселей
Высота : 1080 пикселей
Соотношение сторон : 16:9
Режим частоты кадров : Постоянный
Частота кадров : 23,976 (24000/1001) кадра/сек
Стандарт вещания : NTSC
Цветовое пространство : YUV
Субдискретизация насыщенности : 4:2:0
Битовая глубина : 8 бит
Тип развёртки : Прогрессивная
Бит/(Пиксели*Кадры) : 0.704
Размер потока : 22,0 Гбайт (90%)
Default : Да
Forced : Нет
Цветовой диапазон : Limited
Основные цвета : BT.709
Характеристики трансфера : BT.709
Коэффициенты матрицы : BT.709

Аудио #1
Идентификатор : 2
Формат : AC-3
Формат/Информация : Audio Coding 3
Коммерческое название : Dolby Digital
Идентификатор кодека : A_AC3
Продолжительность : 1 ч. 30 м.
Вид битрейта : Постоянный
Битрейт : 256 Кбит/сек
Каналы : 2 канала
Channel layout : L R
Частота : 48,0 КГц
Частота кадров : 31,250 кадров/сек (1536 SPF)
Битовая глубина : 16 бит
Метод сжатия : С потерями
Задержка видео : 4 с. 500 мс.
Размер потока : 166 Мбайт (1%)
Заголовок : Многоголосый закадровый, R5
Язык : Russian
ServiceKind : Complete Main
Default : Да
Forced : Нет

Аудио #2
Идентификатор : 3
Формат : PCM
Настройки формата : Little / Signed
Идентификатор кодека : A_PCM/INT/LIT
Продолжительность : 1 ч. 30 м.
Вид битрейта : Постоянный
Битрейт : 1536 Кбит/сек
Каналы : 2 канала
Частота : 48,0 КГц
Частота кадров : 200,000 кадров/сек (240 SPF)
Битовая глубина : 16 бит
Размер потока : 995 Мбайт (4%)
Язык : English
Default : Нет
Forced : Нет

Аудио #3
Идентификатор : 4
Формат : DTS XLL
Формат/Информация : Digital Theater Systems
Коммерческое название : DTS-HD Master Audio
Идентификатор кодека : A_DTS
Продолжительность : 1 ч. 30 м.
Вид битрейта : Переменный
Битрейт : 2034 Кбит/сек
Каналы : 6 каналов
Channel layout : C L R Ls Rs LFE
Частота : 48,0 КГц
Частота кадров : 93,750 кадра/сек (512 SPF)
Битовая глубина : 16 бит
Метод сжатия : Без потерь
Размер потока : 1,29 Гбайт (5%)
Язык : Italian
Default : Нет
Forced : Нет

Текст #1
Идентификатор : 5
Формат : PGS
Режим смешивания : zlib
Идентификатор кодека : S_HDMV/PGS
Идентификатор кодека/Информация : Picture based subtitle format used on BDs/HD-DVDs
Продолжительность : 1 ч. 26 м.
Битрейт : 27,6 Кбит/сек
ElementCount : 1016
Размер потока : 17,1 Мбайт (0%)
Заголовок : Русские (full)
Язык : Russian
Default : Нет
Forced : Нет

Текст #2
Идентификатор : 6
Формат : PGS
Режим смешивания : zlib
Идентификатор кодека : S_HDMV/PGS
Идентификатор кодека/Информация : Picture based subtitle format used on BDs/HD-DVDs
Продолжительность : 1 ч. 30 м.
Битрейт : 25,0 Кбит/сек
ElementCount : 1736
Размер потока : 16,2 Мбайт (0%)
Заголовок : English (full)
Язык : English
Default : Нет
Forced : Нет

Текст #3
Идентификатор : 7
Формат : PGS
Режим смешивания : zlib
Идентификатор кодека : S_HDMV/PGS
Идентификатор кодека/Информация : Picture based subtitle format used on BDs/HD-DVDs
Продолжительность : 1 ч. 26 м.
Битрейт : 18,2 Кбит/сек
ElementCount : 1112
Размер потока : 11,2 Мбайт (0%)
Заголовок : English (SDH)
Язык : English
Default : Нет
Forced : Нет


_________________
Проголосуй за трекер Открытый торрент трекер - RUS-MEDIA.ORG

Проголосуй Открытый торрент трекер - RUS-MEDIA.ORG


Вернуться к началу
 Профиль Отправить личное сообщение  
 
   Похожие торренты   Автор   Торрент   Размер 
В этой теме нет новых непрочитанных сообщений. Broken Vows / Нарушая Запреты (2016) WEB-DL

amadei

0 | 0

2.32 ГБ

В этой теме нет новых непрочитанных сообщений. Нарушая запреты 4 / Broken Vows 4 (2018) DVDRip

salma3

107 | 14

1.26 ГБ

В этой теме нет новых непрочитанных сообщений. Нарушая запреты 4 / Broken Vows 4 (2018) WEBRip

salma3

62 | 14

1.51 ГБ

В этой теме нет новых непрочитанных сообщений. Нарушая Запреты / Broken Vows (2016) DVDRip

salma3

14 | 1

1.92 ГБ

В этой теме нет новых непрочитанных сообщений. Broken Vows 3 / Нарушая Запреты 3 (Brother Love, Pure Passion) [2017 г., All Sex, Oral, Gonzo, Big Tits, Hotwife, Mature, MILF, Wives, Affairs & Love Triangles, DVDRip]

max77777

4 | 1

1.07 ГБ

В этой теме нет новых непрочитанных сообщений. Дракула 2000 / Dracula 2000 [ужасы, мистика, 2000] BDRemux 1080p, Dub

salma3

27 | 18

11.55 ГБ

В этой теме нет новых непрочитанных сообщений. Полицейский 2000 года / TC 2000 [Фантастика, боевик, 1993] BDRemux 1080p, Dvo

salma3

27 | 7

14.35 ГБ


Начать новую тему Ответить на тему  [ 1 сообщение ] 




Для Мосгорсуда, Роскомнадзора и рекламодателей:: mosgorsud-torrent[собачка]yandex.ru
cron