Торрент файл
скачать торрент магнет ссылка Добавлен: 04 мар 2016, 15:16
Размер: 577.92 МБ
Сидеров: 329
Личеров: 27
Автор

СообщениеДобавлено: 04 мар 2016, 15:16 

Не в сети
Супермодератор
Аватара пользователя
Дата регистрации:
15 фев 2012, 16:44
Возраст: 29
Спасибо: 7437 / 2147
Сообщения: 80437
Год выхода: 2015
Жанр: боевик, триллер, драма, приключения, биография, история
Режиссер: Рон Ховард
В ролях: Крис Хемсворт, Бенджамин Уокер, Киллиан Мёрфи, Брендан Глисон, Бен Уишоу, Мишель Фэйрли, Том Холланд, Пол Андерсон, Фрэнк Диллэйн, Джозеф Моул
О фильме:
В 1819 году американский корабль «Эссекс» с командой из двух десятков человек на борту отправился из порта в штате Массачусетс на китобойный промысел. Осенью 1820-го успешная на протяжении полутора лет охота была прервана атакой гигантского кашалота на судно, в результате чего морякам пришлось пересесть в шлюпки. В течение трех с лишним месяцев они боролись за выживание посреди океана…

Выпущено: США, Австралия, Испания, Великобритания, Канада / Cott Productions, Enelmar Productions, Imagine Entertainment
Продолжительность: 02:01:43
Озвучивание: Дублированное [iTunes]

Файл
Формат: MP4
Кодек: x264
Качество: HDRip
Видео: MPEG-4 AVC, 640x360, (16:9), 23,976 fps, ~ 664 kbps avg, 0.097 bit/pixel
Аудио: AAC LC 4.0, 2 ch, ~ 128 Кбит/с
V.Serdce.Morja.2015.x264.T.WEB-DLRip.by.GeneralFilm.mp4
Формат : MPEG-4
Профиль формата : Base Media
Идентификатор кодека : isom (isom)
Размер файла : 578 Мбайт
Продолжительность : 2 ч. 1 м.
Режим общего битрейта : Переменный
Общий поток : 664 Кбит/сек
Дата кодирования : UTC 2016-03-03 04:51:20
Дата пометки : UTC 2016-03-03 04:51:20
Программа кодирования : Yamb 2.1.0.0
Видео
Идентификатор : 1
Формат : AVC
Формат/Информация : Advanced Video Codec
Профиль формата : High@L4.1
Параметр CABAC формата : Да
Параметр ReFrames формата : 8 кадров
Идентификатор кодека : avc1
Идентификатор кодека/Информация : Advanced Video Coding
Продолжительность : 2 ч. 1 м.
Битрейт : 538 Кбит/сек
Максимальный битрейт : 4474 Кбит/сек
Ширина : 640 пикселей
Высота : 360 пикселей
Соотношение сторон : 16:9
Режим частоты кадров : Постоянный
Частота кадров : 23,976 (24000/1001) кадра/сек
Цветовое пространство : YUV
Субдискретизация насыщенности : 4:2:0
Битовая глубина : 8 бит
Тип развёртки : Прогрессивная
Бит/(Пиксели*Кадры) : 0.097
Размер потока : 468 Мбайт (81%)
Заголовок : 264@GPAC0.5.2-DEV-rev248-g39d5978-master
Библиотека кодирования : x264 core 146 r2538 121396c
Настройки программы : cabac=1 / ref=8 / deblock=1:-1:-1 / analyse=0x3:0x133 / me=umh / subme=9 / psy=1 / psy_rd=1.00:0.10 / mixed_ref=1 / me_range=16 / chroma_me=1 / trellis=2 / 8x8dct=1 / cqm=0 / deadzone=21,11 / fast_pskip=1 / chroma_qp_offset=-3 / threads=12 / lookahead_threads=1 / sliced_threads=0 / nr=0 / decimate=1 / interlaced=0 / bluray_compat=0 / constrained_intra=0 / bframes=3 / b_pyramid=2 / b_adapt=2 / b_bias=0 / direct=3 / weightb=1 / open_gop=0 / weightp=2 / keyint=250 / keyint_min=23 / scenecut=40 / intra_refresh=0 / rc_lookahead=60 / rc=2pass / mbtree=1 / bitrate=538 / ratetol=1.0 / qcomp=0.60 / qpmin=0 / qpmax=69 / qpstep=4 / cplxblur=20.0 / qblur=0.5 / ip_ratio=1.40 / aq=1:1.00
Дата кодирования : UTC 2016-02-24 15:13:55
Дата пометки : UTC 2016-03-03 04:51:25
Аудио
Идентификатор : 2
Формат : AAC
Формат/Информация : Advanced Audio Codec
Профиль формата : LC
Идентификатор кодека : 40
Продолжительность : 2 ч. 1 м.
Вид битрейта : Переменный
Битрейт : 122 Кбит/сек
Максимальный битрейт : 177 Кбит/сек
Каналы : 2 канала
Расположение каналов : Front: L R
Частота : 48,0 КГц
Частота кадров : 46,875 кадров/сек (1024 spf)
Метод сжатия : С потерями
Размер потока : 106 Мбайт (18%)
Дата кодирования : UTC 2016-03-03 04:39:52
Дата пометки : UTC 2016-03-03 04:51:25





Релиз от:
Исходник BDRip (1080p)


_________________
Проголосуй за трекер Открытый торрент трекер - RUS-MEDIA.ORG

Проголосуй Открытый торрент трекер - RUS-MEDIA.ORG


Вернуться к началу
 Профиль Отправить личное сообщение  
 
Начать новую тему Ответить на тему  [ 1 сообщение ] 




Для Мосгорсуда, Роскомнадзора и рекламодателей:: mosgorsud-torrent[собачка]yandex.ru
cron