Торрент файл
скачать торрент магнет ссылка Добавлен: 26 мар 2017, 14:18
Размер: 1.17 ГБ
Сидеров: 197
Личеров: 32
Автор

СообщениеДобавлено: 26 мар 2017, 14:18 

Не в сети
Супермодератор
Аватара пользователя
Дата регистрации:
15 фев 2012, 16:44
Возраст: 29
Спасибо: 7400 / 2147
Сообщения: 78391
Страна: США
Жанр: фантастика, триллер, драма, детектив
Возраст: 16+
Режиссер: Дени Вильнёв
В ролях: Эми Адамс, Джереми Реннер, Майкл Стулбарг, Форест Уитакер, Сангита Патель, Марк О’Брайэн, Эбигейл Пнёвски, Ци Ма, Натали Тибо, Рут Чианг, Анана Ридвальд, Расселл Юэнь, Фрэнк Фиола, Ларри Дэй, Пэт Кили, Джо Кобден, Джулиан Кэйси, Эндрю Шэйвер, Макс Уолкер, Кристиан Джада, Женевьева Сироис, Мустафа Хайдари, Кэтлин Ставерт, Шон Кэмпбелл
Описание: Неожиданное появление неопознанных летающих объектов в разных точках планеты повергает мир в трепет. Намерения пришельцев не ясны — вооруженные силы всего мира приведены в полную боевую готовность, а лучшие умы человечества пытаются понять, как разговаривать с непрошенными гостями. Правительство обращается за помощью к лингвисту Луизе Бэнкс и физику Яну Доннели, чтобы предотвратить глобальную катастрофу и найти общий язык с пришельцами. Отныне судьба человечества находится в их руках.
Продолжительность: 01:56:27
Перевод: Дублированный [Лицензия]
Оригинальная дорожка: есть
Автор рипа:
Качество видео: BDRip 720p Исходник: Blu-Ray Remux (1080p) Формат: mp4
Видео кодек: MPEG-4 AVC Аудио кодек: AAC
Видео: 1280x536 (2.40:1) at 23.976 fps, AVC at 1 171 kbps avg, 0.071 bit/pixel
Аудио №1 Rus: 48.0 KHz, AAC, 2 ch, 128.0 Kbps
Аудио №2 Eng: 48.0 KHz, AAC, 2 ch, 128.0 Kbps
Субтитры: русские (форсированные, полные), английские (полные)
Навигация по главам: есть
Размер: 1.17 GiB
avs [info]: 1280x536p 1:1 @ 24000/1001 fps (cfr)
x264 [info]: using SAR=1/1
x264 [info]: using cpu capabilities: MMX2 SSE2Fast SSSE3 Cache64
x264 [info]: profile High, level 4.1
x264 [info]: frame I:1101 Avg QP:11.63 size: 62528
x264 [info]: frame P:30494 Avg QP:14.78 size: 14907
x264 [info]: frame B:135829 Avg QP:17.11 size: 3674
x264 [info]: consecutive B-frames: 1.0% 1.7% 1.6% 20.4% 9.0% 29.3% 8.2% 25.9% 2.9%
x264 [info]: mb I I16..4: 10.0% 64.6% 25.4%
x264 [info]: mb P I16..4: 1.5% 4.5% 0.9% P16..4: 48.3% 23.3% 12.6% 0.0% 0.0% skip: 9.0%
x264 [info]: mb B I16..4: 0.1% 0.2% 0.0% B16..8: 43.5% 4.8% 0.7% direct: 1.9% skip:48.9% L0:45.0% L1:51.6% BI: 3.4%
x264 [info]: 8x8 transform intra:65.7% inter:59.6%
x264 [info]: coded y,uvDC,uvAC intra: 61.7% 66.0% 42.6% inter: 8.2% 8.7% 0.7%
x264 [info]: i16 v,h,dc,p: 34% 13% 6% 47%
x264 [info]: i8 v,h,dc,ddl,ddr,vr,hd,vl,hu: 20% 14% 26% 5% 8% 8% 7% 6% 6%
x264 [info]: i4 v,h,dc,ddl,ddr,vr,hd,vl,hu: 33% 17% 21% 5% 7% 5% 5% 4% 3%
x264 [info]: i8c dc,h,v,p: 55% 19% 19% 7%
x264 [info]: Weighted P-Frames: Y:2.1% UV:0.9%
x264 [info]: ref P L0: 51.3% 4.4% 18.0% 8.3% 5.8% 5.3% 4.0% 2.8% 0.1% 0.0%
x264 [info]: ref B L0: 74.9% 11.9% 6.6% 2.7% 2.2% 1.2% 0.5%
x264 [info]: ref B L1: 91.2% 8.8%
x264 [info]: kb/s:1171.35
encoded 167424 frames, 2.55 fps, 1171.35 kb/s

General
Format : MPEG-4
Format profile : Base Media
Codec ID : isom (isom)
File size : 1.17 GiB
Duration : 1 h 56 min
Overall bit rate mode : Variable
Overall bit rate : 1 438 kb/s
Movie name : Прибытие | KinoGadget
Performer : Дени Вильнёв
Director : Дени Вильнёв
Actor : Эми Адамс / Джереми Реннер / Майкл Стулбарг / Форест Уитакер / Сангита Патель / Марк О’Брайэн / Эбигейл Пнёвски / Ци Ма / Натали Тибо / Рут Чианг / Анана Ридвальд / Расселл Юэнь / Фрэнк Фиола / Ларри Дэй / Пэт Кили / Джо Кобден / Джулиан Кэйси / Эндрю Шэйвер
Screenplay by : Эрик Хайссерер / Тед Чан
Producer : Пол Барбо / Глен Баснер / Дэн Коэн
Genre : Drama, Mystery
ContentType : Short Film
Recorded date : 2016
Encoded date : UTC 2017-03-06 05:58:46
Tagged date : UTC 2017-03-06 06:07:28
Cover : Yes
ContentRating : mpaa|PG-13|300|
LongDeion : Неожиданное появление неопознанных летающих объектов в разных точках планеты повергает мир в трепет. Намерения пришельцев не ясны — вооруженные силы всего мира приведены в полную боевую готовность, а лучшие умы человечества пытаются понять, как разговаривать с непрошенными гостями. Правительство обращается за помощью к лингвисту Луизе Бэнкс и физику Яну Доннели, чтобы предотвратить глобальную катастрофу и найти общий язык с пришельцами. Отныне судьба человечества находится в их руках.
HDVideo : Yes
Video
ID : 1
Format : AVC
Format/Info : Advanced Video Codec
Format profile : High@L4.1
Format settings, CABAC : Yes
Format settings, ReFrames : 8 frames
Codec ID : avc1
Codec ID/Info : Advanced Video Coding
Duration : 1 h 56 min
Bit rate : 1 171 kb/s
Maximum bit rate : 8 757 kb/s
Width : 1 280 pixels
Height : 536 pixels
Display aspect ratio : 2.40:1
Frame rate mode : Constant
Frame rate : 23.976 (24000/1001) FPS
Color space : YUV
Chroma subsampling : 4:2:0
Bit depth : 8 bits
Scan type : Progressive
Bits/(Pixel*Frame) : 0.071
Stream size : 975 MiB (81%)
Writing library : x264 core 148 r2638 7599210
Encoding settings : cabac=1 / ref=8 / deblock=1:-2:-1 / analyse=0x3:0x113 / me=umh / subme=7 / psy=1 / psy_rd=1.00:0.00 / mixed_ref=1 / me_range=32 / chroma_me=1 / trellis=2 / 8x8dct=1 / cqm=0 / deadzone=21,11 / fast_pskip=0 / chroma_qp_offset=-2 / threads=3 / lookahead_threads=1 / sliced_threads=0 / nr=0 / decimate=1 / interlaced=0 / bluray_compat=0 / constrained_intra=0 / bframes=8 / b_pyramid=2 / b_adapt=2 / b_bias=0 / direct=1 / weightb=1 / open_gop=0 / weightp=2 / keyint=250 / keyint_min=25 / scenecut=40 / intra_refresh=0 / rc_lookahead=60 / rc=crf / mbtree=1 / crf=17.0 / qcomp=0.60 / qpmin=0 / qpmax=69 / qpstep=4 / vbv_maxrate=62500 / vbv_bufsize=78125 / crf_max=0.0 / nal_hrd=none / filler=0 / ip_ratio=1.40 / aq=1:1.00
Encoded date : UTC 2017-03-06 02:19:08
Tagged date : UTC 2017-03-06 05:59:37
Audio #1
ID : 2
Format : AAC
Format/Info : Advanced Audio Codec
Format profile : LC
Codec ID : 40
Duration : 1 h 56 min
Bit rate mode : Variable
Bit rate : 128 kb/s
Maximum bit rate : 134 kb/s
Channel(s) : 2 channels
Channel positions : Front: L R
Sampling rate : 48.0 kHz
Frame rate : 46.875 FPS (1024 spf)
Compression mode : Lossy
Stream size : 107 MiB (9%)
Title : Dub [License]
Language : Russian
Encoded date : UTC 2017-03-06 02:22:07
Tagged date : UTC 2017-03-06 05:59:37
Audio #2
ID : 3
Format : AAC
Format/Info : Advanced Audio Codec
Format profile : LC
Codec ID : 40
Duration : 1 h 56 min
Bit rate mode : Variable
Bit rate : 128 kb/s
Maximum bit rate : 135 kb/s
Channel(s) : 2 channels
Channel positions : Front: L R
Sampling rate : 48.0 kHz
Frame rate : 46.875 FPS (1024 spf)
Compression mode : Lossy
Stream size : 107 MiB (9%)
Title : Original
Language : English
Encoded date : UTC 2017-03-06 02:32:50
Tagged date : UTC 2017-03-06 05:59:37
Text #1
ID : 4
Format : Timed Text
Codec ID : tx3g
Duration : 1 h 50 min
Bit rate mode : Variable
Bit rate : 1 b/s
Stream size : 603 Bytes (0%)
Title : Forced
Language : Russian
Forced : No
Encoded date : UTC 2017-03-06 05:59:37
Tagged date : UTC 2017-03-06 05:59:37
Text #2
ID : 5
Format : Timed Text
Codec ID : tx3g
Duration : 1 h 50 min
Bit rate mode : Variable
Bit rate : 74 b/s
Stream size : 59.7 KiB (0%)
Title : Full
Language : Russian
Forced : No
Encoded date : UTC 2017-03-06 05:59:37
Tagged date : UTC 2017-03-06 05:59:37
Text #3
ID : 6
Format : Timed Text
Codec ID : tx3g
Duration : 1 h 50 min
Bit rate mode : Variable
Bit rate : 66 b/s
Stream size : 53.7 KiB (0%)
Title : Full
Language : English
Forced : No
Encoded date : UTC 2017-03-06 05:59:37
Tagged date : UTC 2017-03-06 05:59:37
Menu
00:00:00.000 : 00:00:00.000
00:09:49.923 : 00:09:49.923
00:17:33.552 : 00:17:33.552
00:23:28.282 : 00:23:28.282
00:33:54.157 : 00:33:54.157
00:41:01.709 : 00:41:01.709
00:52:26.101 : 00:52:26.101
00:57:34.576 : 00:57:34.576
01:03:06.449 : 01:03:06.449
01:09:29.207 : 01:09:29.207
01:16:09.398 : 01:16:09.398
01:25:21.825 : 01:25:21.825
01:35:37.065 : 01:35:37.065
01:45:26.695 : 01:45:26.695




_________________
Проголосуй за трекер Открытый торрент трекер - RUS-MEDIA.ORG

Проголосуй Открытый торрент трекер - RUS-MEDIA.ORG


Вернуться к началу
 Профиль Отправить личное сообщение  
 
   Похожие торренты   Автор   Торрент   Размер 
В этой теме нет новых непрочитанных сообщений. Прибытие / Arrival [фантастика, триллер, драма, детектив, 2016] BDRip 720p, Dub+Sub [Лицензия]

salma3

179 | 62

7.08 ГБ

В этой теме нет новых непрочитанных сообщений. Прибытие / Arrival [фантастика, триллер, драма, детектив, 2016] BDRip 1080p, Dub+Sub [Лицензия]

salma3

375 | 147

9.75 ГБ

В этой теме нет новых непрочитанных сообщений. Прибытие / Arrival (фантастика, триллер, драма, детектив, 2016) BDRip 720p от HELLYWOOD | iTunes, A

marya111

1115 | 199

5.55 ГБ

В этой теме нет новых непрочитанных сообщений. Прибытие / Arrival [фантастика, триллер, драма, детектив, 2016] Blu-Ray EUR 1080p, Dub+Sub [Лицензия]

salma3

119 | 134

40.25 ГБ

В этой теме нет новых непрочитанных сообщений. Прибытие / Arrival [фантастика, триллер, драма, 2016] BDRip-AVC, Dub+Sub [Лицензия]

salma3

266 | 92

1.46 ГБ

В этой теме нет новых непрочитанных сообщений. Прибытие / Arrival [фантастика, триллер, драма, 2016] BDRip, Dub+Sub [лицензия]

salma3

650 | 173

1.46 ГБ

В этой теме нет новых непрочитанных сообщений. Прибытие / Arrival [фантастика, триллер, драма, 2016] BDRip-AVC, Dub+Sub [Лицензия]

salma3

250 | 89

2.18 ГБ


Начать новую тему Ответить на тему  [ 1 сообщение ] 




Для Мосгорсуда, Роскомнадзора и рекламодателей:: mosgorsud-torrent[собачка]yandex.ru
cron