Торрент файл
скачать торрент магнет ссылка Добавлен: 07 окт 2012, 21:26
Размер: 1.04 ГБ
Сидеров: 10
Личеров: 3
Автор

СообщениеДобавлено: 07 окт 2012, 21:26 

Не в сети
Аватара пользователя
Дата регистрации:
28 ноя 2010, 22:22
Спасибо: 722 / 5
Сообщения: 2030
Салют 09 Мая 2012 года (3D)
Год выпуска: 2012
Страна: Россия
Жанр: Документальный, видовой, демонстрационный
Продолжительность: 00:09:13
Перевод: Не требуется
Русские субтитры: нет
Описание: Салют, снятый на 3D видеокамеру 09 Мая 2012 года в г.Сыктывкаре (Республика Коми).
Особенно красиво в последней части, когда меняется музыка.
ВНИМАНИЕ: 19.05.2012 в 16:20 торрент был перезалит в связи с изменением файла.
В видеоматериал была добавлена 3D графика (объёмный зеркальный вращающийся текст, выпирающий из экрана), видео переведено в вертикальную анаморфную стереопару, уменьшен через перезжатие другим кодеком размер файла с 1,77 Гб до примерно 1 Гб с сохранением качества.

Качество: Full HD Video. Проверено на LG Cinema 3D 47LW4500
Контейнер: AVI
Формат 3D: Вертикальная анаморфная стереопара
Порядок ракурсов: левый ракурс первый
Видео кодек: MPEG-4
Аудио кодек: AAC
Видео: 1080p
Аудио: Русский
См. ссылку в спойлере ниже, чтобы скачать фрагмент
Cкачать короткий фрагмент для предпросмотра (сэмпл)
http://narod.ru/disk/49817040001.14681fc97e5791ccf15e5bfde10fc1c4/Sample.mp4.html
MediaInfo
Формат : MPEG-4
Профиль формата : Base Media
Идентификатор кодека : isom
Размер файла : 1,04 Гбайт
Продолжительность : 9 м. 13 с.
Режим общего битрейта : Переменный
Общий поток : 16,2 Мбит/сек
Дата кодирования : UTC 2012-05-19 12:01:06
Дата пометки : UTC 2012-05-19 12:01:06
Программа кодирования : Lavf51.12.1
Видео
Идентификатор : 1
Формат : AVC
Формат/Информация : Advanced Video Codec
Профиль формата : Baseline@L4.1
Параметр CABAC формата : Нет
Параметр ReFrames формата : 1 кадр
Параметр GOP формата : M=1, N=12
Идентификатор кодека : avc1
Идентификатор кодека/Информация : Advanced Video Coding
Продолжительность : 9 м. 13 с.
Битрейт : 16,1 Мбит/сек
Ширина : 1920 пикселей
Высота : 1080 пикселей
Соотношение сторон : 16:9
Режим частоты кадров : Постоянный
Частота кадров : 29,970 кадров/сек
Цветовое пространство : YUV
Субдискретизация насыщенности : 4:2:0
Битовая глубина : 8 бит
Тип развёртки : Прогрессивная
Бит/(Пиксели*Кадры) : 0.258
Размер потока : 1,03 Гбайт (99%)
Язык : English
Дата кодирования : UTC 2012-05-19 12:01:06
Дата пометки : UTC 2012-05-19 12:01:06
Аудио
Идентификатор : 2
Формат : AAC
Формат/Информация : Advanced Audio Codec
Профиль формата : LC
Идентификатор кодека : 40
Продолжительность : 9 м. 13 с.
Вид битрейта : Переменный
Битрейт : 152 Кбит/сек
Каналы : 2 канала
Расположение каналов : Front: L R
Частота : 44,1 КГц
Метод сжатия : С потерями
Размер потока : 10,0 Мбайт (1%)
Скриншоты
[



Вернуться к началу
 Профиль Отправить личное сообщение  
 
   Похожие торренты   Автор   Торрент   Размер 
В этой теме нет новых непрочитанных сообщений. Venus (271 ролик) (aka Valerie, Miss Venus, Venus Rising, Angelica Costello, Venuss) MegaPack / Venus (271 ролик) [All Sex, Anal, DP, DAP, Oral, Lesbo, Solo]

salma3

4 | 380

58.42 ГБ

В этой теме нет новых непрочитанных сообщений. Denise Fagerberg (71 ролик) MegaPack [2012-2016, Amateur, Big Boobs, Fake Boobs, Big Butt, Fake Butt, Ebony, Solo, Toys, Webcam]

salma3

0 | 0

12.52 ГБ

В этой теме нет новых непрочитанных сообщений. Любительский секс дома (2018) CamRip

Dievas

274 | 182

181.19 МБ

В этой теме нет новых непрочитанных сообщений. Любительский секс с молодой парой (2015) CamRip

Dile-1

6 | 13

117.8 МБ

В этой теме нет новых непрочитанных сообщений. Настоящий любительский секс / Richtiger Amateur sex (2015) HD 1080p

Dile-1

4 | 2

270.21 МБ

В этой теме нет новых непрочитанных сообщений. Быстрый любительский секс [2016 г., Amateur, Homemade, All Sex., CamRip]

Dievas

31 | 3

143 МБ

В этой теме нет новых непрочитанных сообщений. [DorcelClub.com] Jessie Volt - Half Angel Half Succubus (25.11.2017) [2017 г., All Sex, Hardcore, 1080p]

salma3

30 | 10

506.33 МБ


Начать новую тему Ответить на тему  [ 1 сообщение ] 




Для Мосгорсуда, Роскомнадзора и рекламодателей:: mosgorsud-torrent[собачка]yandex.ru
cron