Торрент файл
скачать торрент магнет ссылка Добавлен: 07 окт 2012, 21:29
Размер: 102.79 МБ
Сидеров: 14
Личеров: 3
Автор

СообщениеДобавлено: 07 окт 2012, 21:29 

Не в сети
Аватара пользователя
Дата регистрации:
28 ноя 2010, 22:22
Спасибо: 722 / 5
Сообщения: 2030
Гамбургерская пирушка: HambusterГод выпуска: 2010
Страна: Франция
Жанр: короткометражный анимационный фильм / animated short film
Продолжительность: 00:06:53
Перевод: Не требуется
субтитры: отсутствуют
Режиссер: Поль Александр / Paul Alexandre, Дара Кэзэмеа / Dara Cazamea, Максим Казо / Maxime Cazaux, Ромен Делоне / Romain Delaunay, Бруно Ортольянд / Bruno Ortolland
Описание: Короткометражка начинается с идиллической картины на детской площадке: малыш качается на качелях, а на скамейке рядом простой офисный труженик желает отобедать гамбургером. Ребенок стал первой жертвой ожившего гамбургера, который, поедая всё на своем пути, затем долго гнался за своим покупателем. В ходе забавной погони зрителю предстают кадры о повсеместном и победоносном восстании фастфуда. Гамбургеру в итоге удастся проглотить менеджера. Но на этом забавный мультфильм не закончится, так как жажда жизни неутолима и производство фастфуда идёт непрерывно.
Качество: WEBRip-AVC (720)
Формат: MP4
Формат 3D: Anaglyph / Анаглиф red'cyan
Видео кодек: AVC
Аудио кодек: AAC
Видео: 1280x544, 24 fps, ~1927 kbps avg, 0.115 bit/pixel
Аудио: 44.1 kHz, 2ch, ~156 kbps avg


MediaInfo
Общее
Полное имя : G:\Гамбургерская пирушка\Hambuster.2010.WEBRip-AVC (720) 3D.mp4
Формат : MPEG-4
Профиль формата : Base Media
Идентификатор кодека : isom
Размер файла : 103 Мбайт
Продолжительность : 6 м. 53 с.
Общий поток : 2086 Кбит/сек
Дата кодирования : UTC 2011-09-14 06:32:20
Дата пометки : UTC 2011-09-14 06:32:20
Видео
Идентификатор : 1
Формат : AVC
Формат/Информация : Advanced Video Codec
Профиль формата : High@L3.1
Параметр CABAC формата : Да
Параметр ReFrames формата : 6 кадры
Идентификатор кодека : avc1
Идентификатор кодека/Информация : Advanced Video Coding
Продолжительность : 6 м. 53 с.
Вид битрейта : Переменный
Битрейт : 1927 Кбит/сек
Максимальный битрейт : 6983 Кбит/сек
Ширина : 1280 пикс.
Высота : 544 пикс.
Соотношение сторон : 2,35:1
Режим частоты кадров : Постоянный
Частота кадров : 24,000 кадр/сек
Цветовое пространство : YUV
Подвыборка цветности : 4:2:0
Битовая глубина : 8 бит
Тип развёртки : Прогрессивная
Бит/(Пиксели*Кадры) : 0.115
Размер потока : 95,0 Мбайт (92%)
Библиотека кодирования : x264 core 116 r2044 392e762
Настройки программы : cabac=1 / ref=6 / deblock=1:1:1 / analyse=0x3:0x113 / me=umh / subme=9 / psy=1 / psy_rd=0.40:0.00 / mixed_ref=0 / me_range=18 / chroma_me=0 / trellis=0 / 8x8dct=1 / cqm=0 / deadzone=21,11 / fast_pskip=1 / chroma_qp_offset=-2 / threads=3 / sliced_threads=0 / nr=0 / decimate=1 / interlaced=0 / bluray_compat=0 / constrained_intra=0 / bframes=8 / b_pyramid=2 / b_adapt=2 / b_bias=0 / direct=3 / weightb=1 / open_gop=0 / weightp=0 / keyint=240 / keyint_min=25 / scenecut=40 / intra_refresh=0 / rc_lookahead=100 / rc=crf / mbtree=1 / crf=21.0 / qcomp=0.60 / qpmin=10 / qpmax=69 / qpstep=4 / ip_ratio=1.70 / aq=1:0.70
Дата кодирования : UTC 2011-09-14 06:32:20
Дата пометки : UTC 2011-09-14 06:32:32
Аудио
Идентификатор : 2
Формат : AAC
Формат/Информация : Advanced Audio Codec
Профиль формата : LC
Идентификатор кодека : 40
Продолжительность : 6 м. 53 с.
Вид битрейта : Переменный
Битрейт : 156 Кбит/сек
Максимальный битрейт : 256 Кбит/сек
Канал(ы) : 2 канала(ов)
Расположение каналов : Front: L R
Частота : 44,1 КГц
Метод сжатия : С потерями
Размер потока : 7,66 Мбайт (7%)
Дата кодирования : UTC 2011-09-14 06:32:30
Дата пометки : UTC 2011-09-14 06:32:32



Вернуться к началу
 Профиль Отправить личное сообщение  
 
Начать новую тему Ответить на тему  [ 1 сообщение ] 




Для Мосгорсуда, Роскомнадзора и рекламодателей:: mosgorsud-torrent[собачка]yandex.ru
cron