Торрент файл
скачать торрент магнет ссылка Добавлен: 13 июн 2018, 21:05
Размер: 2.22 ГБ
Сидеров: 402
Личеров: 197
Статус: (salma3)
Автор

СообщениеДобавлено: 13 июн 2018, 21:05 

В сети
Супермодератор
Аватара пользователя
Дата регистрации:
15 фев 2012, 16:44
Возраст: 29
Спасибо: 7400 / 2147
Сообщения: 78199
Год выхода: 2018
Жанр: Фантастика
Режиссер: Хасраф Дулул

В ролях: Кэти Сакхофф, Джули Кокс, Стивен Кри, Рэй Фиарон, Изабелль Марлоу, Джо Уолтерс, Дэвид К.С. Тсе

О фильме:
Космическая экспедиция обнаруживает на поверхности Марса нечто, способное изменить жизнь человечества навсегда. Но вместо того, чтобы помочь людям раскрыть марсианскую тайну, искусственный интеллект на борту корабля берёт управление на себя.



Страна: Великобритания, Head Gear Films, Metrol Technology, Origin Unknown Films
Продолжительность: 01:35:04
Перевод: Любительский (двухголосый закадровый) | HiWay Grope

Файл
Кодек: MPEG-4 AVC/x.264
Качество: WEBRip 720p
Видео: 1280x528, 24.000 fps, ~2899 kbps, 0.179 bit/pixel
Аудио rus: AC3, 48 kHz, 6 ch, 384 Kbps

Реклама: присутствует

Семпл

General
Unique ID : 290315046120138878162831836686524932755 (0xDA68A4E14E48F52BCF3F6B8BA37CE293)
Complete name : E:2036.Origin.Unknown.2018.720p.WEBRip.HiWayGrope2036.Origin.Unknown.2018.720p.WEBRip.HiWayGrope.mkv
Format : Matroska
Format version : Version 4 / Version 2
File size : 2.22 GiB
Duration : 1h 35mn
Overall bit rate : 3 349 Kbps
Encoded date : UTC 2018-06-13 15:50:28
Writing application : mkvmerge v21.0.0 ('Tardigrades Will Inherit The Earth') 64-bit
Writing library : libebml v1.3.5 + libmatroska v1.4.8

Video
ID : 1
Format : AVC
Format/Info : Advanced Video Codec
Format profile : Main@L4.1
Format settings, CABAC : Yes
Format settings, ReFrames : 4 frames
Codec ID : V_MPEG4/ISO/AVC
Duration : 1h 35mn
Bit rate : 2 899 Kbps
Width : 1 280 pixels
Height : 528 pixels
Display aspect ratio : 2.40:1
Frame rate mode : Constant
Frame rate : 24.000 fps
Color space : YUV
Chroma subsampling : 4:2:0
Bit depth : 8 bits
Scan type : Progressive
Bits/(Pixel*Frame) : 0.179
Stream size : 1.93 GiB (87%)
Language : English
Default : Yes
Forced : No
Color range : Limited
Color primaries : BT.601 NTSC
Transfer characteristics : BT.601
Matrix coefficients : BT.601

Audio
ID : 2
Format : AC-3
Format/Info : Audio Coding 3
Mode extension : CM (complete main)
Format settings, Endianness : Big
Codec ID : A_AC3
Duration : 1h 35mn
Bit rate mode : Constant
Bit rate : 384 Kbps
Channel(s) : 6 channels
Channel positions : Front: L C R, Side: L R, LFE
Sampling rate : 48.0 KHz
Frame rate : 31.250 fps (1536 spf)
Compression mode : Lossy
Stream size : 261 MiB (11%)
Language : Russian
Default : Yes
Forced : No



Релиз от: HiWay Grope


_________________
Проголосуй за трекер Открытый торрент трекер - RUS-MEDIA.ORG

Проголосуй Открытый торрент трекер - RUS-MEDIA.ORG


Вернуться к началу
 Профиль Отправить личное сообщение  
 
   Похожие торренты   Автор   Торрент   Размер 
В этой теме нет новых непрочитанных сообщений. 2036, происхождение неизвестно / 2036 Origin Unknown [Фантастика, 2018] WEBRip, Dvo

salma3

185 | 115

1.32 ГБ

В этой теме нет новых непрочитанных сообщений. 2036, происхождение неизвестно / 2036 Origin Unknown [Фантастика, 2018] WEB-DLRip-AVC

salma3

0 | 0

1.57 ГБ

В этой теме нет новых непрочитанных сообщений. 2036, происхождение неизвестно / 2036 Origin Unknown [Фантастика, 2018] BDRip, Mvo

salma3

478 | 62

1.46 ГБ

В этой теме нет новых непрочитанных сообщений. 2036, происхождение неизвестно / 2036 Origin Unknown [Фантастика, 2018] WEB-DLRip, Mvo

salma3

59 | 34

1.46 ГБ

В этой теме нет новых непрочитанных сообщений. 2036, происхождение неизвестно / 2036 Origin Unknown [Фантастика, 2018] BDRemux 1080p, Mvo

salma3

0 | 0

15.88 ГБ

В этой теме нет новых непрочитанных сообщений. Происхождение неизвестно / 2036 Origin Unknown (2018) WEB-DLRip

Alfredovich

455 | 72

1.37 ГБ

В этой теме нет новых непрочитанных сообщений. Rust [v.2036, Devblog 186] [FPS, 3D, Simulator, 2014] [RePack]

vitalikmd

368 | 178

3.05 ГБ


Начать новую тему Ответить на тему  [ 1 сообщение ] 




Для Мосгорсуда, Роскомнадзора и рекламодателей:: mosgorsud-torrent[собачка]yandex.ru
cron