Торрент файл
скачать торрент магнет ссылка Добавлен: 17 июн 2018, 17:03
Размер: 1.25 ГБ
Сидеров: 277
Личеров: 117
Статус: (salma3)
Автор

СообщениеДобавлено: 17 июн 2018, 17:03 

Не в сети
Супермодератор
Аватара пользователя
Дата регистрации:
15 фев 2012, 16:44
Возраст: 29
Спасибо: 7400 / 2147
Сообщения: 78391
Год выхода: 2018
Жанр: Фантастика, триллер
Режиссер: Райан Беллгардт

В ролях: Перри Ривз, Райан Мерриман, Дилан Кокс, Брюс Дэвис, Ретт Террелл, Кейт Джонс, Эрика Дэйли, Кэти Бёрджесс, Адам Хэмптон и другие

О фильме:
Действие фильма происходит в ближайшем будущем. 10 осуждённых преступников вынуждены сражаться за свою жизнь в виртуальной игре против динозавров.



Страна: США, High Octane Pictures
Продолжительность: 01:26:31
Перевод: Любительский (двухголосый закадровый) | HiWay Grope

Файл
Кодек: XviD
Качество: WEBRip
Видео: 720x304, 24 fps, ~1673 kbps, 0.32 bit/pixel
Аудио rus: AC3, 48 kHz, 6 ch, 384 Kbps

Реклама: присутствует

Семпл

General
Complete name : E:The.Jurassic.Games.2018.WEBRip.HiWayGropeThe.Jurassic.Games.2018.WEBRip.HiWayGrope.avi
Format : AVI
Format/Info : Audio Video Interleave
File size : 1.25 GiB
Duration : 1h 26mn
Overall bit rate : 2 067 Kbps
Writing application : VirtualDubMod 1.5.10.3 (build 2550/release)
Writing library : VirtualDubMod build 2550/release

Video
ID : 0
Format : MPEG-4 Visual
Format profile : Advanced Simple@L5
Format settings, BVOP : 1
Format settings, QPel : No
Format settings, GMC : No warppoints
Format settings, Matrix : Default (MPEG)
Codec ID : XVID
Codec ID/Hint : XviD
Duration : 1h 26mn
Bit rate : 1 673 Kbps
Width : 720 pixels
Height : 304 pixels
Display aspect ratio : 2.35:1
Frame rate : 24.000 fps
Color space : YUV
Chroma subsampling : 4:2:0
Bit depth : 8 bits
Scan type : Progressive
Compression mode : Lossy
Bits/(Pixel*Frame) : 0.319
Stream size : 1.01 GiB (81%)
Writing library : XviD 73

Audio
ID : 1
Format : AC-3
Format/Info : Audio Coding 3
Mode extension : CM (complete main)
Format settings, Endianness : Big
Codec ID : 2000
Duration : 1h 26mn
Bit rate mode : Constant
Bit rate : 384 Kbps
Channel(s) : 6 channels
Channel positions : Front: L C R, Side: L R, LFE
Sampling rate : 48.0 KHz
Frame rate : 31.250 fps (1536 spf)
Compression mode : Lossy
Stream size : 238 MiB (19%)
Alignment : Split accross interleaves
Interleave, duration : 42 ms (1.00 video frame)
Interleave, preload duration : 500 ms



Релиз от: HiWay Grope


_________________
Проголосуй за трекер Открытый торрент трекер - RUS-MEDIA.ORG

Проголосуй Открытый торрент трекер - RUS-MEDIA.ORG


Вернуться к началу
 Профиль Отправить личное сообщение  
 
   Похожие торренты   Автор   Торрент   Размер 
В этой теме нет новых непрочитанных сообщений. Игры юрского периода / The Jurassic Games [Фантастика, триллер, 2018] WEBRip 720p, Dvo

salma3

390 | 143

2.02 ГБ

В этой теме нет новых непрочитанных сообщений. Мир Юрского периода / Jurassic World [фантастика, приключения, боевик, 2015] WEBRip 1080p, Dub [Open Matte]

salma3

11 | 6

18.54 ГБ

В этой теме нет новых непрочитанных сообщений. Мир Юрского периода / Jurassic World [фантастика, приключения, боевик, 2015] WEBRip 1080p, Dub [Open Matte]

salma3

12 | 16

20.93 ГБ

В этой теме нет новых непрочитанных сообщений. Мир Юрского периода 2 / Jurassic World: Fallen Kingdom [Фантастика, боевик, приключения, 2018] WEB-DL 1080p, Sub

salma3

521 | 249

4.47 ГБ

В этой теме нет новых непрочитанных сообщений. Мир Юрского периода 2 / Jurassic World: Fallen Kingdom [фантастика, боевик, приключения, 2018] HDTVRip, Mvo

salma3

1327 | 134

1.37 ГБ

В этой теме нет новых непрочитанных сообщений. Мир Юрского периода / Jurassic World [Фантастика, боевик, триллер, 2015] BDRip-HEVC 2160p, Dub

salma3

0 | 0

36.79 ГБ

В этой теме нет новых непрочитанных сообщений. Парк Юрского периода 3 / Jurassic Park III [Фантастика, триллер, приключения, 2001] UHD BDRemux 2160p , Dub [4K]

salma3

0 | 0

57.57 ГБ


Начать новую тему Ответить на тему  [ 1 сообщение ] 




Для Мосгорсуда, Роскомнадзора и рекламодателей:: mosgorsud-torrent[собачка]yandex.ru
cron