Торрент файл
скачать торрент магнет ссылка Добавлен: 18 июн 2018, 11:05
Размер: 5.04 ГБ
Сидеров: 2358
Личеров: 95
Статус: (salma3)
Автор

СообщениеДобавлено: 18 июн 2018, 11:05 

В сети
Супермодератор
Аватара пользователя
Дата регистрации:
15 фев 2012, 16:44
Возраст: 29
Спасибо: 7400 / 2147
Сообщения: 78165
Год выхода: 2018
Жанр: Фантастика, боевик, приключения
Режиссер: Стивен Спилберг

В ролях: Тай Шеридан, Оливия Кук, Бен Мендельсон, Лина Уэйте, ТиДжей Миллер, Саймон Пегг, Марк Райлэнс, Филип Чжао, Уин Морисаки, Ханна Джон-Кэймен, Ралф Айнесон, Сьюзэн Линч, Клер Хиггинс, Лоуренс Спэллман, Пердита Викс, Джоэль МакКормэк, Кит Коннор, Лео Хеллер, Линн Уилморт

О фильме:
Действие фильма происходит в 2045 году, мир погружается в хаос и находится на грани коллапса. Люди ищут спасения в игре OASIS — огромной вселенной виртуальной реальности. Ее создатель, гениальный и эксцентричный Джеймс Холлидэй, оставляет уникальное завещание. Все его колоссальное состояние получит игрок, первым обнаруживший цифровое «пасхальное яйцо», которое миллиардер спрятал где-то на просторах OASISа. Запущенный им квест охватывает весь мир. Совершенно негероический парень по имени Уэйд Уоттс решает принять участие в состязании, с головой бросаясь в головокружительную, искажающую реальность погоню за сокровищами по фантастической вселенной, полной загадок, открытий и опасностей.



Страна: США
Продолжительность: 02:19:56
Перевод: Профессиональный [многоголосый] [HDRezka Studio]

Качество: WEB-DL 1080p
Видео: MPEG-4 AVC, 1920x800, 4582 Kbit/s, 23.976 fps
Аудио01: 48 kHz, AC3, 2.0, 192 Kbps | HDRezka Studio | RUS
Аудио02: 48 kHz, AC3, 5.1, 384 Kbps | Оригинал | ENG
Субтитры: Русские (Forced, 2xFull), английские

General
Unique ID : 179006957193812147536253025904620353450 (0x86AB7C64AF2F22D9BA78AD405F1E37AA)
Complete name : D:Video111Ready.Player.One.2018.WEB-DL.1080p.ExKinoRay.mkv
Format : Matroska
Format version : Version 4 / Version 2
File size : 5.04 GiB
Duration : 2 h 19 min
Overall bit rate : 5 160 kb/s
Movie name : Ready Player One 2018 from ExKinoRay
Encoded date : UTC 2018-06-18 02:56:54
Writing application : mkvmerge v7.3.0 ('Nouages') 64bit built on Oct 22 2014 18:53:34
Writing library : libebml v1.3.0 + libmatroska v1.4.1

Video
ID : 1
Format : AVC
Format/Info : Advanced Video Codec
Format profile : High@L4
Format settings : CABAC / 5 Ref Frames
Format settings, CABAC : Yes
Format settings, ReFrames : 5 frames
Codec ID : V_MPEG4/ISO/AVC
Duration : 2 h 19 min
Bit rate : 4 582 kb/s
Width : 1 920 pixels
Height : 800 pixels
Display aspect ratio : 2.40:1
Frame rate mode : Constant
Frame rate : 23.976 (24000/1001) FPS
Color space : YUV
Chroma subsampling : 4:2:0
Bit depth : 8 bits
Scan type : Progressive
Bits/(Pixel*Frame) : 0.124
Stream size : 4.48 GiB (89%)
Language : English
Default : Yes
Forced : No
Color range : Limited
Color primaries : BT.709
Transfer characteristics : BT.709
Matrix coefficients : BT.709

Audio #1
ID : 2
Format : AC-3
Format/Info : Audio Coding 3
Codec ID : A_AC3
Duration : 2 h 19 min
Bit rate mode : Constant
Bit rate : 192 kb/s
Channel(s) : 2 channels
Channel positions : Front: L R
Sampling rate : 48.0 kHz
Frame rate : 31.250 FPS (1536 SPF)
Bit depth : 16 bits
Compression mode : Lossy
Stream size : 192 MiB (4%)
Title : MVO [HDRezka Studio]
Language : Russian
Service kind : Complete Main
Default : Yes
Forced : Yes

Audio #2
ID : 3
Format : AC-3
Format/Info : Audio Coding 3
Codec ID : A_AC3
Duration : 2 h 19 min
Bit rate mode : Constant
Bit rate : 384 kb/s
Channel(s) : 6 channels
Channel positions : Front: L C R, Side: L R, LFE
Sampling rate : 48.0 kHz
Frame rate : 31.250 FPS (1536 SPF)
Bit depth : 16 bits
Compression mode : Lossy
Stream size : 384 MiB (7%)
Title : Original
Language : English
Service kind : Complete Main
Default : No
Forced : No

Text #1
ID : 4
Format : UTF-8
Codec ID : S_TEXT/UTF8
Codec ID/Info : UTF-8 Plain Text
Duration : 2 h 8 min
Bit rate : 1 b/s
Count of elements : 34
Stream size : 1.26 KiB (0%)
Title : Forced
Language : Russian
Default : Yes
Forced : Yes

Text #2
ID : 5
Format : UTF-8
Codec ID : S_TEXT/UTF8
Codec ID/Info : UTF-8 Plain Text
Duration : 2 h 10 min
Bit rate : 92 b/s
Count of elements : 1411
Stream size : 88.3 KiB (0%)
Title : Full
Language : Russian
Default : No
Forced : No

Text #3
ID : 6
Format : UTF-8
Codec ID : S_TEXT/UTF8
Codec ID/Info : UTF-8 Plain Text
Duration : 2 h 8 min
Bit rate : 95 b/s
Count of elements : 1581
Stream size : 90.2 KiB (0%)
Title : Full v.2
Language : Russian
Default : No
Forced : No

Text #4
ID : 7
Format : UTF-8
Codec ID : S_TEXT/UTF8
Codec ID/Info : UTF-8 Plain Text
Duration : 2 h 8 min
Bit rate : 62 b/s
Count of elements : 1856
Stream size : 59.0 KiB (0%)
Title : Full
Language : English
Default : No
Forced : No

Menu
00:00:00.000 : en:1
00:09:49.798 : en:2
00:21:31.666 : en:3
00:34:19.141 : en:4
00:44:03.934 : en:5
00:58:29.174 : en:6
01:11:17.192 : en:7
01:21:53.745 : en:8
01:32:33.968 : en:9


Релиз от: Автор релиза:


_________________
Проголосуй за трекер Открытый торрент трекер - RUS-MEDIA.ORG

Проголосуй Открытый торрент трекер - RUS-MEDIA.ORG


Вернуться к началу
 Профиль Отправить личное сообщение  
 
   Похожие торренты   Автор   Торрент   Размер 
В этой теме нет новых непрочитанных сообщений. Первому игроку приготовиться / Ready Player One [Фантастика, боевик, приключения, 2018] Blu-Ray CEE 1080р, Dub [3D-Video] [Лицензия]

salma3

94 | 83

46.53 ГБ

В этой теме нет новых непрочитанных сообщений. Первому игроку приготовиться / Ready Player One [Фантастика, боевик, приключения, 2018] BDRip 1080р, Dub [iTunes]

salma3

0 | 0

10.4 ГБ

В этой теме нет новых непрочитанных сообщений. Первому игроку приготовиться / Ready Player One [Фантастика, боевик, приключения, 2018] BDRemux 1080р, Dub [3D-Video] [Лицензия]

salma3

0 | 1

37.89 ГБ

В этой теме нет новых непрочитанных сообщений. Первому игроку приготовиться / Ready Player One [Фантастика, боевик, приключения, 2018] WEB-DLRip, Mvo

salma3

0 | 2

1.46 ГБ

В этой теме нет новых непрочитанных сообщений. Первому игроку приготовиться / Ready Player One [Фантастика, боевик, приключения, 2018] WEB-DLRip, Mvo

salma3

1289 | 460

1.47 ГБ

В этой теме нет новых непрочитанных сообщений. Первому игроку приготовиться / Ready Player One [Фантастика, боевик, приключения, 2018] WEB-DL 720р, Mvo

salma3

0 | 0

4.51 ГБ

В этой теме нет новых непрочитанных сообщений. Первому игроку приготовиться / Ready Player One [Фантастика, Боевик, Приключения, 2018] WEB-DLRip, Mvo

salma3

47 | 18

2.05 ГБ


Начать новую тему Ответить на тему  [ 1 сообщение ] 




Для Мосгорсуда, Роскомнадзора и рекламодателей:: mosgorsud-torrent[собачка]yandex.ru
cron