Торрент файл
скачать торрент магнет ссылка Добавлен: 22 июн 2018, 16:46
Размер: 7.14 ГБ
Сидеров: 5
Личеров: 5
Статус: (salma3)
Автор

СообщениеДобавлено: 22 июн 2018, 16:46 

Не в сети
Супермодератор
Аватара пользователя
Дата регистрации:
15 фев 2012, 16:44
Возраст: 29
Спасибо: 7428 / 2147
Сообщения: 80047
Год выпуска: 2017
Жанр: комедия
Режиссер: Джиллиан Робеспьер

В ролях: Дженни Слейт, Финн Уиттрок, Джон Туртурро, Иди Фалько, Эми Карлсон, Джей Дюпласс, Али Ан, Эбби Куинн Джекман, Джордан Карлос, Инна Муратова

Описание:
Действие фильма происходит в 1995 году. Главная героиня с родители и сестрой живёт на Манхэттене. Казалось бы, что это обычная счастливая семья, но через какое‑то время девушка начинает подозревать, что её отцу есть что скрывать.



Страна: США
Продолжительность: 01:37:19
Перевод: Профессиональный [многоголосый] [iTunes]

Качество: WEB-DL 1080p
Видео: MPEG-4 AVC, 1920x800, 9474 Kbit/s, 23.976 fps
Аудио #01: 48 kHz, AC3, 5.1, 384 Kbps | iTunes | RUS
Аудио #02: 48 kHz, AC3, 5.1, 640 Kbps | Оригинал | ENG
Субтитры: Английские

General
Unique ID : 247061759794408731065313007529037398029 (0xB9DE5D37A16FFFB8884481468F90000D)
Complete name : D:Video111Landline.2017.AMZN.WEB-DL.1080p.ExKinoRay.mkv
Format : Matroska
Format version : Version 4 / Version 2
File size : 7.14 GiB
Duration : 1 h 37 min
Overall bit rate mode : Variable
Overall bit rate : 10.5 Mb/s
Movie name : Landline 2017 from ExKinoRay AMZN Version
Encoded date : UTC 2018-06-22 12:40:37
Writing application : mkvmerge v7.3.0 ('Nouages') 64bit built on Oct 22 2014 18:53:34
Writing library : libebml v1.3.0 + libmatroska v1.4.1

Video
ID : 1
Format : AVC
Format/Info : Advanced Video Codec
Format profile : High@L4
Format settings : CABAC / 4 Ref Frames
Format settings, CABAC : Yes
Format settings, ReFrames : 4 frames
Codec ID : V_MPEG4/ISO/AVC
Duration : 1 h 37 min
Bit rate mode : Variable
Bit rate : 9 474 kb/s
Maximum bit rate : 15.0 Mb/s
Width : 1 920 pixels
Height : 800 pixels
Display aspect ratio : 2.40:1
Frame rate mode : Constant
Frame rate : 23.976 (24000/1001) FPS
Color space : YUV
Chroma subsampling : 4:2:0
Bit depth : 8 bits
Scan type : Progressive
Bits/(Pixel*Frame) : 0.257
Stream size : 6.44 GiB (90%)
Language : English
Default : Yes
Forced : No
Color range : Limited
Color primaries : BT.709
Transfer characteristics : BT.709
Matrix coefficients : BT.709

Audio #1
ID : 2
Format : AC-3
Format/Info : Audio Coding 3
Codec ID : A_AC3
Duration : 1 h 37 min
Bit rate mode : Constant
Bit rate : 384 kb/s
Channel(s) : 6 channels
Channel positions : Front: L C R, Side: L R, LFE
Sampling rate : 48.0 kHz
Frame rate : 31.250 FPS (1536 SPF)
Bit depth : 16 bits
Compression mode : Lossy
Stream size : 267 MiB (4%)
Title : iTunes
Language : Russian
Service kind : Complete Main
Default : Yes
Forced : Yes

Audio #2
ID : 3
Format : AC-3
Format/Info : Audio Coding 3
Codec ID : A_AC3
Duration : 1 h 37 min
Bit rate mode : Constant
Bit rate : 640 kb/s
Channel(s) : 6 channels
Channel positions : Front: L C R, Side: L R, LFE
Sampling rate : 48.0 kHz
Frame rate : 31.250 FPS (1536 SPF)
Bit depth : 16 bits
Compression mode : Lossy
Stream size : 445 MiB (6%)
Title : Original
Language : English
Service kind : Complete Main
Default : No
Forced : No

Text
ID : 4
Format : UTF-8
Codec ID : S_TEXT/UTF8
Codec ID/Info : UTF-8 Plain Text
Duration : 1 h 34 min
Bit rate : 74 b/s
Count of elements : 1984
Stream size : 51.6 KiB (0%)
Title : Full
Language : English
Default : No
Forced : No

Menu
00:00:00.000 : en:Studio Logos
00:00:44.000 : en:Dana and her family head back to New York
00:03:31.000 : en:Ali chats with Jed
00:04:34.000 : en:Sandra tells Dana about her new fling
00:05:33.000 : en:Ali sings her new song for Jed
00:07:54.000 : en:Dana and Ben go to Ravi's party
00:11:40.000 : en:Ali sneaks out in the middle of the night
00:15:23.000 : en:Alan and Pat discuss Ali
00:16:50.000 : en:Ali tries to find out her father's secret
00:18:03.000 : en:Dana listens to her voicemails
00:19:42.000 : en:Dana runs into Nate at music shop
00:21:39.000 : en:Dana plays hookey with Nate
00:26:34.000 : en:Ali gets grounded for sneaking out
00:29:38.000 : en:Ali runs off with Jed
00:35:16.000 : en:Dana and Ali have some sister time at the pool
00:36:49.000 : en:Ali shows Dana their father's poems
00:40:34.000 : en:Dana brings Ali back home
00:41:44.000 : en:Ben and Dana have intimacy issues
00:44:45.000 : en:Dana sneaks off with Nate to the movie theatre
00:46:36.000 : en:Dana extends her stay with her parents
00:50:36.000 : en:Dana wakes up with a hangover
00:51:33.000 : en:Ali and Dana discover C at Alan's play reading
00:55:18.000 : en:Alan has a frank conversation with Dana
00:58:13.000 : en:Dana calls Ben for the first time in 2 weeks
01:00:57.000 : en:Dana and Ali go trick or treating
01:03:55.000 : en:Dana tells Ben about the affair
01:08:43.000 : en:Ali meets with Sophie's dealer
01:11:38.000 : en:Pat asks Alan about C
01:16:03.000 : en:Alan bails out his daughters
01:19:52.000 : en:Dana waits for Ben
01:22:00.000 : en:Alan teaches Ali how to drive
01:25:26.000 : en:Dana and Ben have a frank discussion about their relationship
01:28:44.000 : en:The family reunites for Ali's birthday
01:31:17.000 : en:End Credits


Релиз от: Автор релиза:


_________________
Проголосуй за трекер Открытый торрент трекер - RUS-MEDIA.ORG

Проголосуй Открытый торрент трекер - RUS-MEDIA.ORG


Вернуться к началу
 Профиль Отправить личное сообщение  
 
   Похожие торренты   Автор   Торрент   Размер 
В этой теме нет новых непрочитанных сообщений. Телефонная линия / Landline [драма, комедия, 2017] WEB-DLRip-AVC, Mvo [iTunes]

salma3

0 | 0

1.4 ГБ

В этой теме нет новых непрочитанных сообщений. Телефонная линия / Landline [комедия, 2017] WEBDLRip, Mvo

salma3

96 | 32

1.35 ГБ

В этой теме нет новых непрочитанных сообщений. Телефонная линия / Landline [драма, комедия, 2017] WEB-DLRip 720p, Mvo

salma3

12 | 0

2.93 ГБ

В этой теме нет новых непрочитанных сообщений. Линия огня [01-08 из 08] [Драма, криминал, 2017] WEBRip 1080p

salma3

0 | 0

17.21 ГБ

В этой теме нет новых непрочитанных сообщений. Линия жизни / Lifeline [S01] [триллер, фантастика, боевик, 2017] WEB-DLRip 1080p, Dvo [ViruseProject]

salma3

17 | 15

6.31 ГБ

В этой теме нет новых непрочитанных сообщений. Телефонная будка / Phone Booth [триллер, криминал, детектив, 2002] WEB-DL 1080p, Dub [Open Matte]

salma3

0 | 1

8.94 ГБ

В этой теме нет новых непрочитанных сообщений. Напарник [Комедия, 2017] WEB-DL 1080p [iTunes]

salma3

913 | 26

3.18 ГБ


Начать новую тему Ответить на тему  [ 1 сообщение ] 




Для Мосгорсуда, Роскомнадзора и рекламодателей:: mosgorsud-torrent[собачка]yandex.ru
cron