Торрент файл
скачать торрент магнет ссылка Добавлен: 14 авг 2018, 10:28
Размер: 9.46 ГБ
Сидеров: 0
Личеров: 0
Статус: (salma3)
Автор

СообщениеДобавлено: 14 авг 2018, 10:28 

Не в сети
Супермодератор
Аватара пользователя
Дата регистрации:
15 фев 2012, 16:44
Возраст: 29
Спасибо: 7400 / 2147
Сообщения: 78200
Год выхода: 2007
Жанр: Боевик, триллер, драма
Режиссер: Трип Рид

В ролях: Кевин Сорбо, Иветт Нипар, Хейли Рэмм, Элизабет Барондес, Родриго Де Ла Роза, Кристина Хирн, Джонни Круз, Марк В. Джонсон, Бенжамин Бёрдик, Гэйл Кронау, Дженнифер Сайпс, Райан Херст, Мерк Харбор, Тимоти Вэйл, Эндрю Стивенс, Лоуренс Варнадо, Эдгар Арреола, Виктор Кинтеро,

О фильме:
Разобравшись с преступностью в небольшом родном городке, шериф Ник Прескотт (Кевин Сорбо) решает оставить должность и переехать в Даллас, чтобы вместе с привлекательной женщиной, агентом ФБР и ее 12-летней дочкой почувствовать вкус нормальной человеческой жизни. Но непредсказуемая жизнь вносит свои коррективы, когда жестокий наркобарон выбирает нескольких ключевых федеральных свидетелей в качестве своих мишеней. Бывший шериф оказывается в центре развернувшейся войны и на чужой территории... под огневым шквалом. Ник не считается авторитетом на городских улицах, но полагаясь на свое жизненное кредо, он не остановится ни перед чем, чтобы защитить то, что принадлежит ему. Похоже, Ник вынужден вершить правосудие в одиночку.



Страна: США
ьность: [/b]01:33:47
Перевод: Профессиональный [многоголосый]

Файл
Кодек: x264
Качество: WEB-DL 1080p
Видео: MPEG-4 AVC, 13.0 Mбит/с, 1920x1080
Звук #1: Русский | AC3, 6 ch, 448 Кбит/с
Звук #2: Английский | EAC3, 6 ch, 640 Кбит/с
Субтитры: Английские


Формат : Matroska
Версия формата : Version 2
Размер файла : 9,46 Гбайт
Продолжительность : 1 ч. 34 м.
Общий поток : 14,4 Мбит/сек
Название фильма : Walking.Tall.Lone.Justice.2007.1080p.AMZN.WEB-DL.by.zzZGVvv
Дата кодирования : UTC 2018-08-14 05:25:58
Программа кодирования : mkvmerge v5.8.0 ('No Sleep / Pillow') built on Sep 2 2012 15:37:04
Библиотека кодирования : libebml v1.2.3 + libmatroska v1.3.0
Attachements : cover.jpg

Видео
Идентификатор : 1
Формат : AVC
Формат/Информация : Advanced Video Codec
Профиль формата : High@L4
Параметр CABAC формата : Да
Параметр ReFrames формата : 4 кадра
Идентификатор кодека : V_MPEG4/ISO/AVC
Продолжительность : 1 ч. 34 м.
Битрейт : 13,0 Мбит/сек
Ширина : 1920 пикселей
Высота : 1080 пикселей
Соотношение сторон : 16:9
Режим частоты кадров : Постоянный
Частота кадров : 23,976 кадра/сек
Цветовое пространство : YUV
Субдискретизация насыщенности : 4:2:0
Битовая глубина : 8 бит
Тип развёртки : Прогрессивная
Бит/(Пиксели*Кадры) : 0.262
Размер потока : 8,56 Гбайт (90%)
Заголовок : Walking.Tall.Lone.Justice.2007.1080p.AMZN.WEB-DL.DDP5.1
Язык : English
Default : Да
Forced : Нет
Цветовой диапазон : Limited
Основные цвета : BT.709
Характеристики трансфера : BT.709
Коэффициенты матрицы : BT.709

Аудио #1
Идентификатор : 2
Формат : AC-3
Формат/Информация : Audio Coding 3
Расширение режима : CM (complete main)
Параметр Endianness формата : Big
Идентификатор кодека : A_AC3
Продолжительность : 1 ч. 34 м.
Вид битрейта : Постоянный
Битрейт : 448 Кбит/сек
Каналы : 6 каналов
Расположение каналов : Front: L C R, Side: L R, LFE
Частота : 48,0 КГц
Метод сжатия : С потерями
Размер потока : 302 Мбайт (3%)
Default : Да
Forced : Нет

Аудио #2
Идентификатор : 3
Формат : E-AC-3
Формат/Информация : Audio Coding 3
Параметр Endianness формата : Big
Идентификатор кодека : A_EAC3
Продолжительность : 1 ч. 34 м.
Вид битрейта : Постоянный
Битрейт : 640 Кбит/сек
Каналы : 6 каналов
Расположение каналов : Front: L C R, Side: L R, LFE
Частота : 48,0 КГц
Метод сжатия : С потерями
Размер потока : 431 Мбайт (4%)
Язык : English
Default : Нет
Forced : Нет

Текст #1
Идентификатор : 4
Формат : UTF-8
Идентификатор кодека : S_TEXT/UTF8
Идентификатор кодека/Информация : UTF-8 Plain Text
Язык : English
Default : Нет
Forced : Нет

Текст #2
Идентификатор : 5
Формат : UTF-8
Идентификатор кодека : S_TEXT/UTF8
Идентификатор кодека/Информация : UTF-8 Plain Text
Заголовок : SDH
Язык : English
Default : Нет
Forced : Нет



_________________
Проголосуй за трекер Открытый торрент трекер - RUS-MEDIA.ORG

Проголосуй Открытый торрент трекер - RUS-MEDIA.ORG


Вернуться к началу
 Профиль Отправить личное сообщение  
 
   Похожие торренты   Автор   Торрент   Размер 
В этой теме нет новых непрочитанных сообщений. Широко шагая / Walking Tall [боевик, триллер, драма, 2004] Blu-Ray 1080p, Dub

salma3

0 | 14

19.2 ГБ

В этой теме нет новых непрочитанных сообщений. Широко шагая / Walking Tall [боевик, триллер, драма, комедия, 2004] BDRip 1080p, Dub

salma3

50 | 24

4.37 ГБ

В этой теме нет новых непрочитанных сообщений. Широко шагая / Walking Tall [боевик, триллер, драма, 1973] HDRip, Avo

salma3

30 | 10

1.45 ГБ

В этой теме нет новых непрочитанных сообщений. Широко шагая / Walking Tall [боевик, 2004] BDRip 720p, Dub

salma3

3 | 0

4.36 ГБ

В этой теме нет новых непрочитанных сообщений. Правосудие Стила / Steele Justice [Боевик, триллер, драма, 1987] BDRip 1080p, Dvo

salma3

0 | 0

9.46 ГБ

В этой теме нет новых непрочитанных сообщений. Правосудие для всех / ...And Justice for All [триллер, драма, криминал, 1979] BDRip 720p, Dub

salma3

7 | 2

9.03 ГБ

В этой теме нет новых непрочитанных сообщений. Правосудие для всех / ...And Justice for All [триллер, драма, криминал, 1979] BDRip, Mvo [Первый кана]

salma3

21 | 17

1.46 ГБ


Начать новую тему Ответить на тему  [ 1 сообщение ] 




Для Мосгорсуда, Роскомнадзора и рекламодателей:: mosgorsud-torrent[собачка]yandex.ru
cron