Торрент файл
скачать торрент магнет ссылка Добавлен: 14 авг 2018, 10:53
Размер: 2.85 ГБ
Сидеров: 2993
Личеров: 581
Статус: (salma3)
Автор

СообщениеДобавлено: 14 авг 2018, 10:53 

Не в сети
Супермодератор
Аватара пользователя
Дата регистрации:
15 фев 2012, 16:44
Возраст: 29
Спасибо: 7400 / 2147
Сообщения: 78133
Год выпуска: 2018
Жанр: Фэнтези, ужасы
Режиссёр: Святослав Подгаевский

В ролях: Виктория Агалакова, Ефим Петрунин, Никита Еленев, Сесиль Плеже, Игорь Хрипунов, Софья Шидловская, Дарья Ярцева, Дмитрий Ярцев, Алла Артамонова, Эмиль Салес

Описание:
Встреча со странной девушкой на затерянном лесном озере и её поцелуй резко меняют жизнь Ромы. Об этой встрече он очень скоро пожалеет: неизвестный недуг высасывает из него все жизненные силы. Марина готова на всё, чтобы освободить жениха от мистического морока. Что окажется сильнее: проклятье прошлого или настоящая любовь?



Страна: Россия
Продолжительность: 01:23:19
Язык: Русский

Файл
Формат: MKV
Качество: WEB-DL 1080p
Видео: 1920x804 (2.40:1), 25 fps, MPEG-4 AVC ~ 4505 kbps avg, 0.117 bit/pixel
Звук: AC3, 48 kHz, 6 ch, ~384.00 kbps avg | русский | iTunes

Общее
Уникальный идентификатор : 208302774393866202333808905651684825556 (0x9CB5A7B2B1BD5F8F9962A39E3ACED9D4)
Полное имя : D:TorrentsЗавершенныеRUSALKA_OZERO_MERTVYH_2018.WED-DL_1080p.mkv
Формат : Matroska
Версия формата : Version 2
Размер файла : 2,85 Гбайт
Продолжительность : 1 ч. 23 м.
Общий поток : 4891 Кбит/сек
Дата кодирования : UTC 2018-08-13 18:16:22
Программа кодирования : mkvmerge v8.3.0 ('Over the Horizon') 64bit
Библиотека кодирования : libebml v1.3.1 + libmatroska v1.4.2

Видео
Идентификатор : 1
Формат : AVC
Формат/Информация : Advanced Video Codec
Профиль формата : High@L4
Настройки формата : CABAC / 5 Ref Frames
Параметр CABAC формата : Да
Параметр RefFrames формата : 5 кадров
Идентификатор кодека : V_MPEG4/ISO/AVC
Продолжительность : 1 ч. 23 м.
Битрейт : 4505 Кбит/сек
Ширина : 1920 пикселей
Высота : 804 пикселя
Соотношение сторон : 2,40:1
Режим частоты кадров : Постоянный
Частота кадров : 25,000 кадров/сек
Цветовое пространство : YUV
Субдискретизация насыщенности : 4:2:0
Битовая глубина : 8 бит
Тип развёртки : Прогрессивная
Бит/(Пиксели*Кадры) : 0.117
Размер потока : 2,62 Гбайт (92%)
Язык : English
Default : Да
Forced : Нет
Цветовой диапазон : Limited
Основные цвета : BT.709
Характеристики трансфера : BT.709
Коэффициенты матрицы : BT.709

Аудио
Идентификатор : 2
Формат : AC-3
Формат/Информация : Audio Coding 3
Идентификатор кодека : A_AC3
Продолжительность : 1 ч. 23 м.
Вид битрейта : Постоянный
Битрейт : 384 Кбит/сек
Каналы : 6 каналов
Расположение каналов : Front: L C R, Side: L R, LFE
Частота : 48,0 КГц
Частота кадров : 31,250 кадров/сек (1536 SPF)
Битовая глубина : 16 бит
Метод сжатия : С потерями
Размер потока : 229 Мбайт (8%)
Язык : Russian
Default : Да
Forced : Нет

Меню
00:00:00.000 : en:Глава 1
00:08:19.640 : en:Глава 2
00:14:49.040 : en:Глава 3
00:20:20.840 : en:Глава 4
00:24:52.200 : en:Глава 5
00:29:50.320 : en:Глава 6
00:36:30.480 : en:Глава 7
00:42:06.520 : en:Глава 8
00:46:17.120 : en:Глава 9
00:51:53.480 : en:Глава 10
00:57:56.920 : en:Глава 11
01:04:05.040 : en:Глава 12
01:08:12.360 : en:Глава 13
01:14:08.120 : en:Глава 14


_________________
Проголосуй за трекер Открытый торрент трекер - RUS-MEDIA.ORG

Проголосуй Открытый торрент трекер - RUS-MEDIA.ORG


Вернуться к началу
 Профиль Отправить личное сообщение  
 
   Похожие торренты   Автор   Торрент   Размер 
В этой теме нет новых непрочитанных сообщений. Русалка. Озеро мертвых [фэнтези, ужасы, 2018] WEB-DLRip [iTunes]

salma3

10 | 1

1.46 ГБ

В этой теме нет новых непрочитанных сообщений. Озеро страха: Наследие / Lake Placid: Legacy [Ужасы, фантастика, боевик, 2018] WEB-DL 1080p, Mvo [iTunes]

salma3

836 | 264

3.9 ГБ

В этой теме нет новых непрочитанных сообщений. Озеро страха: Наследие / Lake Placid: Legacy [Ужасы, фантастика, боевик, 2018] WEB-DLRip, Mvo [iTunes]

salma3

494 | 54

1.46 ГБ

В этой теме нет новых непрочитанных сообщений. Сага о чудовище. Сумерки / Wildling [Ужасы, фэнтези, 2018] BDRemux 1080p, Dub [iTunes]

salma3

0 | 0

17.59 ГБ

В этой теме нет новых непрочитанных сообщений. Озеро желаний / Harvest Lake [ужасы, фэнтези, драма, 2016] WEB-DLRip, Mvo

salma3

666 | 165

1.37 ГБ

В этой теме нет новых непрочитанных сообщений. Озеро Бодом / Bodom [ужасы, 2016] BDRip 1080p, Avo

salma3

209 | 73

8.63 ГБ

В этой теме нет новых непрочитанных сообщений. Райское озеро / Eden Lake [Ужасы, триллер, 2008] BDRemux 1080p, Dub

salma3

11 | 3

14.95 ГБ


Начать новую тему Ответить на тему  [ 1 сообщение ] 




Для Мосгорсуда, Роскомнадзора и рекламодателей:: mosgorsud-torrent[собачка]yandex.ru
cron