Торрент файл
скачать торрент магнет ссылка Добавлен: 17 авг 2018, 11:01
Размер: 12.4 ГБ
Сидеров: 0
Личеров: 0
Статус: (salma3)
Автор

СообщениеДобавлено: 17 авг 2018, 11:01 

Не в сети
Супермодератор
Аватара пользователя
Дата регистрации:
15 фев 2012, 16:44
Возраст: 29
Спасибо: 7428 / 2147
Сообщения: 80047
Год выпуска: 2017
Жанр: Триллер
Режиссер: Эндрю МакКарти, Лоуренс Триллинг

В ролях: Стивен Стрейт, Кэс Анвар, Доминик Типпер, Уэс Чэтэм, Фрэнки Адамс, Шохре Агдашлу, Чад Коулмэн, Терри Чен, Ник Тарабэй, Кара Ги, Франсуа Чау, Тед Атертон, Элизабет Митчелл, Натали Лисинска, Джайден Ноэль, Джереми Криттенден

О фильме:
В центре сюжета шпионского сериала «Кондор» находится молодой и невероятно амбициозный Джо Тернер. Являясь идеалистом, он старается все делать настолько хорошо, насколько это возможно. Главный герой прилагает максимум усилий для того, чтобы сделать этот мир лучше. По этой причине он проходит строгий отбор и поступает на службу в секретный отдел ЦРУ. Джо уверен, что здесь он сможет принести больше всего пользы. Но он и не подозревает, с чем ему придется столкнуться. Сразу же после вступления в должность начальство заявляет Джо, что он еще слишком молод для того, чтобы вести оперативную работу. Из-за отсутствия опыта его определяют в тот отдел, где ему приходится целыми днями заниматься заполнением бумаг и анализом полученной информации. Но после жестокой расправы над коллегами из его отдела Джо вынужден оставить свою прежнюю должность, чтобы начать битву с опасными врагами. Тернер оказывается в центре масштабного заговора. Теперь ему предстоит спасти не только себя, но и всю страну.



Страна: США
Продолжительность: 10 x ~ 00:44:00
Перевод: Любительский многоголосый закадровый [ColdFilm]

Файл
Кодек: x264 (AVC)
Качество: WEBRip 720p
Видео: ~3500 Кбит/с, 1280x720, 29.970 fps
Аудио: Русский (AC3, 2 ch, 125 Кбит/с)



eneral
Unique ID : 181370807807380519216155423740564585051 (0x8872BF3A0AA278DDBB6519BB34C3BA5B)
Complete name : D:Condor.S01.720p.ColdFilmCondor.S01E01.720p.ColdFilm.mkv
Format : Matroska
Format version : Version 2
File size : 1.38 GiB
Duration : 53 min 59 s
Overall bit rate : 3 656 kb/s
Encoded date : UTC 2018-06-07 12:46:39 / UTC 2017-11-20 18:25:40
Writing application : mkvmerge v3.3.0 ('Language') built on Mar 24 2010 14:59:24
Writing library : libebml v0.8.0 + libmatroska v0.9.0 / Lavf54.63.104

Video
ID : 1
Format : AVC
Format/Info : Advanced Video Codec
Format profile : Main@L3.1
Format settings : CABAC / 1 Ref Frames
Format settings, CABAC : Yes
Format settings, ReFrames : 1 frame
Codec ID : V_MPEG4/ISO/AVC
Duration : 53 min 59 s
Bit rate : 3 500 kb/s
Width : 1 280 pixels
Height : 720 pixels
Display aspect ratio : 16:9
Frame rate mode : Constant
Frame rate : 25.000 FPS
Color space : YUV
Chroma subsampling : 4:2:0
Bit depth : 8 bits
Scan type : Progressive
Bits/(Pixel*Frame) : 0.152
Stream size : 1.28 GiB (93%)
Writing library : x264 core 129
Default : No
Forced : No

Audio
ID : 2
Format : AC-3
Format/Info : Audio Coding 3
Codec ID : A_AC3
Duration : 53 min 59 s
Bit rate mode : Constant
Bit rate : 192 kb/s
Channel(s) : 2 channels
Channel positions : Front: L R
Sampling rate : 48.0 kHz
Frame rate : 31.250 FPS (1536 SPF)
Bit depth : 16 bits
Compression mode : Lossy
Stream size : 74.1 MiB (5%)
Service kind : Complete Main
Default : Yes
Forced : No


Релиз от:


_________________
Проголосуй за трекер Открытый торрент трекер - RUS-MEDIA.ORG

Проголосуй Открытый торрент трекер - RUS-MEDIA.ORG


Вернуться к началу
 Профиль Отправить личное сообщение  
 
   Похожие торренты   Автор   Торрент   Размер 
В этой теме нет новых непрочитанных сообщений. Кондор / Condor [S01] [Триллер, 2018] WEBRip, Mvo [Coldfilm]

salma3

0 | 0

3.44 ГБ

В этой теме нет новых непрочитанных сообщений. Кондор / Condor [01x01 из 10] [Триллер, 2018] WEBRip, Mvo [Coldfilm]

salma3

78 | 6

442.22 МБ

В этой теме нет новых непрочитанных сообщений. Кондор / Condor [S01] [триллер, 2018] WEBRip, Mvo [Jaskier]

salma3

0 | 0

7.1 ГБ

В этой теме нет новых непрочитанных сообщений. Кондор / Condor [2018](Сезон 1, Серия 1-10 из 10 )( Эндрю МакКарти, Лоуренс Триллинг) [Триллер, WEB-DLRip][720p][ Lostfilm+NewStudiо+Jaskier+ ProfixMedia+BaibaKО+Kubik V Kube +Eng]+[Subs ENG]

Враг Нароода

2 | 0

25.28 ГБ

В этой теме нет новых непрочитанных сообщений. Кондор / Condor [2018](Сезон 1, Серия 1-10 из 10 )( Эндрю МакКарти, Лоуренс Триллинг) [Триллер, WEB-DLRip][1080p][ Lostfilm+NewStudiо+Jaskier+ ProfixMedia+BaibaKО+Kubik V Kube +Eng]+[Subs ENG]

Враг Нароода

2 | 0

31 ГБ

В этой теме нет новых непрочитанных сообщений. Эда / Edha [S01] [Драма, триллер, 2018] WEBRip 720p, Mvo [Coldfilm]

salma3

0 | 0

7.22 ГБ

В этой теме нет новых непрочитанных сообщений. Дубль два / Take Two [S01] [Фантастика, триллер, драма, 2018] WEBRip 720p, Mvo [Coldfilm]

salma3

0 | 0

14.68 ГБ


Начать новую тему Ответить на тему  [ 1 сообщение ] 




Для Мосгорсуда, Роскомнадзора и рекламодателей:: mosgorsud-torrent[собачка]yandex.ru
cron