Торрент файл
скачать торрент магнет ссылка Добавлен: 17 авг 2018, 21:17
Размер: 19.69 ГБ
Сидеров: 0
Личеров: 0
Статус: (salma3)
Автор

СообщениеДобавлено: 17 авг 2018, 21:17 

Не в сети
Супермодератор
Аватара пользователя
Дата регистрации:
15 фев 2012, 16:44
Возраст: 29
Спасибо: 7401 / 2147
Сообщения: 78452
Год выпуска: 2009
Страна: США
Жанр: драма, мелодрама, комедия
Продолжительность: 01:42:20
Перевод 1: Профессиональный (полное дублирование)*
Перевод 2: Профессиональный (двухголосый, закадровый) НТВ+ **
Перевод 3: Любительский (двухголосый, закадровый)
Субтитры: русские (2 варианта), английские

Режиссер: Питер Челсом / Peter Chelsom

В ролях: Майли Сайрус, Билли Рэй Сайрус, Эмили Осмент, Джейсон Ерлс, Митчел Муссо, Мойзес Ариас, Лукас Тилл, Ванесса Уильямс, Марго Мартиндейл, Питер Ганн, Мелора Хардин, Джаред Картер, Бэрри Боствик, Биу Биллингсли, Катрина Смит, Эмили Ривз, Джейн Карр, Тейлор Свифт, Gary LeVox, Джей ДеМаркус, JoeDon Rooney, Джошуа Чайлдз, Рэйчел Вудс, Наталия Дайер, Джерри Фостер, Адам Грегори, Шоун Картер Петерсон, Ямал Симс, Джон Уилл Клэй, Д. Тодд Хэммонд, Майкл Корначчиа, Вэлори Хаббард, Томми Барнс, Gary Schleimer, Джэси Корделл, Джек Хоук, Лиза Дарр, Пол Перри, Марио Картер, Эмбер Хьюберт, Эшли Сандберг, Трэвис Арчер, Коул С. МакКэй, Ben Hatchell, Крис О’Рейли, Джеймс Александр, Шэйн Т. Андерсон, Алена, Тайра Бэнкс, Caitlyn Bosarge, Джастин Браун, Лоуренс Булл, Рики Каслберри, Jack Chevanty, Кайла Клэри, Джош Коэн, Грег Феллоуз, Джованни Джиаратана, Stephanie K. Grant, Джоэль Харольд, Скотт С. Джексон, Дэни Миура, Бэйли Джонсон, Энн Локхарт, Майкл Лонгстрет, Джули Мэбри, Роман Маршанский, Либби МакДермотт, Эми Бернштейн, Тайлер Миддендорф, Вернон Митчел, Эджей Нэйэр, Келли Ниналтовски, Алекс Пулидо, Shelby Purchner, Майкл Сэбалски, Kortnee Rumph, Скотт Стюарт, GJ Tiari, Аманда Уотерс

Описание: Когда популярность Ханны Монтаны берет верх над жизнью Майли Стюарт, ее отец принимает решение совершить поездку в ее родной город Тенесси, чтобы понять какая перспектива имеет большее значение в жизни Майли.



Релиз группы:

Качество: BDRemux 1080р
Формат: MKV
Видео: MPEG-4 AVC Video / 23696 kbps / 1080p / 23,976 fps / 16:9 / High Profile 4.1
Аудио 1: Dolby Digital Audio Russian 2.0 / 48 kHz / 192 kbps [дубляж]
Аудио 2: Dolby Digital Audio Russian 5.1 / 48 kHz / 384 kbps [НТВ+]
Аудио 3: Dolby Digital Audio Russian 5.1 / 48 kHz / 384 kbps Любительский (двухголосый, закадровый)
Аудио 4: DTS-HD Master Audio English 7.1 / 48 kHz / 2957 kbps / 16-bit (DTS Core: 5.1 / 48 kHz / 1509 kbps / 16-bit)

General
Unique ID : 246535395978922736472076050913344896843 (0xB978FD7A41588B8989B5D03EB1243F4B)
Complete name : J:Hannah.Montana.The.Movie.2009.1080p.Bluray.AVC.Remux.mkv
Format : Matroska
File size : 19.7 GiB
Duration : 1h 42mn
Overall bit rate : 27.5 Mbps
Movie name : Hannah.Montana.The.Movie.2009.1080p.Bluray.AVC.Remux
Encoded date : UTC 2011-06-26 10:31:02
Writing application : mkvmerge v4.8.0 ('I Got The...') сборка от May 24 2011 03:12:58
Writing library : libebml v1.2.0 + libmatroska v1.1.0

Video
ID : 1
Format : AVC
Format/Info : Advanced Video Codec
Format profile : High@L4.1
Format settings, CABAC : Yes
Format settings, ReFrames : 4 frames
Codec ID : V_MPEG4/ISO/AVC
Duration : 1h 42mn
Bit rate mode : Variable
Bit rate : 23.7 Mbps
Maximum bit rate : 36.0 Mbps
Width : 1 920 pixels
Height : 1 080 pixels
Display aspect ratio : 16:9
Frame rate : 23.976 fps
Color space : YUV
Chroma subsampling : 4:2:0
Bit depth : 8 bits
Scan type : Progressive
Bits/(Pixel*Frame) : 0.476
Stream size : 16.9 GiB (86%)
Title : uralmix
Color primaries : BT.709-5, BT.1361, IEC 61966-2-4, SMPTE RP177
Transfer characteristics : BT.709-5, BT.1361
Matrix coefficients : BT.709-5, BT.1361, IEC 61966-2-4 709, SMPTE RP177

Audio #1
ID : 2
Format : AC-3
Format/Info : Audio Coding 3
Mode extension : CM (complete main)
Codec ID : A_AC3
Duration : 1h 42mn
Bit rate mode : Constant
Bit rate : 192 Kbps
Channel(s) : 2 channels
Channel positions : Front: L R
Sampling rate : 48.0 KHz
Bit depth : 16 bits
Compression mode : Lossy
Stream size : 141 MiB (1%)
Title : дубляж
Language : Russian

Audio #2
ID : 3
Format : AC-3
Format/Info : Audio Coding 3
Mode extension : CM (complete main)
Codec ID : A_AC3
Duration : 1h 42mn
Bit rate mode : Constant
Bit rate : 384 Kbps
Channel(s) : 6 channels
Channel positions : Front: L C R, Side: L R, LFE
Sampling rate : 48.0 KHz
Bit depth : 16 bits
Compression mode : Lossy
Stream size : 281 MiB (1%)
Title : НТВ+ (Игорь Тарадайкин и Наталья Казначеева)
Language : Russian

Audio #3
ID : 4
Format : AC-3
Format/Info : Audio Coding 3
Mode extension : CM (complete main)
Codec ID : A_AC3
Duration : 1h 42mn
Bit rate mode : Constant
Bit rate : 384 Kbps
Channel(s) : 6 channels
Channel positions : Front: L C R, Side: L R, LFE
Sampling rate : 48.0 KHz
Bit depth : 16 bits
Compression mode : Lossy
Stream size : 281 MiB (1%)
Title : двухголосый
Language : Russian

Audio #4
ID : 5
Format : DTS
Format/Info : Digital Theater Systems
Format profile : MA / Core
Codec ID : A_DTS
Duration : 1h 42mn
Bit rate mode : Variable
Bit rate : 2 359 Kbps / 1 510 Kbps
Channel(s) : 8 channels / 6 channels
Channel positions : Front: L C R, Side: L R, Back: L R, LFE / Front: L C R, Side: L R, LFE
Sampling rate : 48.0 KHz
Bit depth : 16 bits
Compression mode : Lossless / Lossy
Language : English

Text #1
ID : 6
Format : UTF-8
Codec ID : S_TEXT/UTF8
Codec ID/Info : UTF-8 Plain Text
Title : SDH
Language : Russian

Text #2
ID : 7
Format : UTF-8
Codec ID : S_TEXT/UTF8
Codec ID/Info : UTF-8 Plain Text
Language : Russian

Text #3
ID : 8
Format : UTF-8
Codec ID : S_TEXT/UTF8
Codec ID/Info : UTF-8 Plain Text
Title : SDH
Language : English

Menu
00:00:00.000 : en:00:00:00.000
00:08:44.107 : en:00:08:44.107
00:16:59.518 : en:00:16:59.518
00:26:02.936 : en:00:26:02.936
00:32:21.273 : en:00:32:21.273
00:41:12.512 : en:00:41:12.512
00:47:11.787 : en:00:47:11.787
00:55:51.306 : en:00:55:51.306
01:05:19.791 : en:01:05:19.791
01:15:10.339 : en:01:15:10.339
01:24:22.391 : en:01:24:22.391
01:32:13.862 : en:01:32:13.862
01:37:46.110 : en:01:37:46.110



_________________
Проголосуй за трекер Открытый торрент трекер - RUS-MEDIA.ORG

Проголосуй Открытый торрент трекер - RUS-MEDIA.ORG


Вернуться к началу
 Профиль Отправить личное сообщение  
 
   Похожие торренты   Автор   Торрент   Размер 
В этой теме нет новых непрочитанных сообщений. Лукас / Lucas [драма, мелодрама, комедия, 1986] BDRemux 1080р, Avo

salma3

0 | 0

20.49 ГБ

В этой теме нет новых непрочитанных сообщений. Скажи что-нибудь / Say Anything... [драма, мелодрама, комедия, 1989] BDRemux 1080р, Mvo

salma3

1 | 7

20.96 ГБ

В этой теме нет новых непрочитанных сообщений. Официант / Garçon! [драма, мелодрама, комедия, 1983] BDRemux 1080р, Mvo

salma3

0 | 1

23.5 ГБ

В этой теме нет новых непрочитанных сообщений. Лето 42-го / Summer of '42 [драма, мелодрама, комедия, 1971] BDRemux 1080р, Dvo

salma3

8 | 2

27.08 ГБ

В этой теме нет новых непрочитанных сообщений. Собутыльники / Drinking Buddies [драма, мелодрама, комедия, 2013] BDRemux 1080р, Mvo

salma3

3 | 3

19.62 ГБ

В этой теме нет новых непрочитанных сообщений. Гарольд и Мод / Harold and Maude [драма, мелодрама, комедия, 1971] BDRemux 1080р, Avo

salma3

2 | 1

23.42 ГБ

В этой теме нет новых непрочитанных сообщений. Письмо Брежневу / Letter to Brezhnev [драма, мелодрама, комедия, 1985] BDRemux 1080р, Avo

salma3

17 | 4

21.2 ГБ


Начать новую тему Ответить на тему  [ 1 сообщение ] 




Для Мосгорсуда, Роскомнадзора и рекламодателей:: mosgorsud-torrent[собачка]yandex.ru
cron