Торрент файл
скачать торрент магнет ссылка Добавлен: 13 окт 2018, 21:15
Размер: 76.67 ГБ
Сидеров: 7
Личеров: 14
Статус: (salma3)
Автор

СообщениеДобавлено: 13 окт 2018, 21:15 

Не в сети
Супермодератор
Аватара пользователя
Дата регистрации:
15 фев 2012, 16:44
Возраст: 29
Спасибо: 7401 / 2147
Сообщения: 78594
Год выхода: 2017
Жанр: Боевик, фэнтези, приключения
Режиссер: Фумихико Сори

В ролях: Рёске Ямада, Цубаса Хонда, Дин Фудзиока, Рюта Сато, Мисако Рэмбуцу, Ё Ойзуми, Кэндзиро Исимару, Ясуко Мацуюки, Синдзи Утияма, Каната Хонго

О фильме:
В стране Аместрис алхимия широко распространена как точная наука. Два брата Эдвард и Альфонс Элрики ещё детьми пытались при помощи алхимии воскресить мёртвую маму, но поплатились за это. Старший лишился руки и ноги, младший — всего тела, хотя и был в самый последний момент чудом спасен — брат привязывает его душу к стальным рыцарским доспехам. Теперь два брата — первый со стальными протезами, второй — просто говорящий доспех — ищут философский камень, чтобы вернуть тело Альфонса.



Страна: Япония
Продолжительность: 02:13:47
Перевод: Профессиональный многоголосый, любительский многоголосый, любительский одноголосый

Файл
Кодек: H.265
Качество: BDRemux 2160p
Видео: HEVC HDR, 77.0 Mбит/с, 3840x2160, 23.976 кадр/с
Звук:
Русский (AC3, 6 ch, 384 Кбит/с) / Профессиональный многоголосый (AlexFilm)
Русский (AC3, 6 ch, 384 Кбит/с) / Любительский многоголосый (AniDUB)
Русский (AC3, 6 ch, 384 Кбит/с) / Любительский одноголосый (PiratVoice, Cleric)
Японский (DTS-HD MA, 6 ch, 3924 Кбит/с)
Субтитры: Русские (Форсированные, полные), английские, японские

Семпл

General
Unique ID : 201163953472474543972402492341546227666 (0x9756C4A6F236407C25ADA1B7D1BD97D2)
Complete name : C:UsersPublicVideosSample VideosFilmyFullmetal.Alchemist.2017.BDRemux.2160p.HDR.MediaClub.mkv
Format : Matroska
Format version : Version 4
File size : 76.7 GiB
Duration : 2 h 13 min
Overall bit rate mode : Variable
Overall bit rate : 82.0 Mb/s
Encoded date : UTC 2018-10-13 07:40:45
Writing application : mkvmerge v25.0.0 ('Prog Noir') 64-bit
Writing library : libebml v1.3.6 + libmatroska v1.4.9
Attachments : 199651_front.jpg

Video
ID : 1
Format : HEVC
Format/Info : High Efficiency Video Coding
Format profile : Main 10@L5.1@High
Codec ID : V_MPEGH/ISO/HEVC
Duration : 2 h 13 min
Bit rate : 77.0 Mb/s
Width : 3 840 pixels
Height : 2 160 pixels
Display aspect ratio : 16:9
Frame rate mode : Constant
Frame rate : 23.976 (24000/1001) FPS
Color space : YUV
Chroma subsampling : 4:2:0 (Type 2)
Bit depth : 10 bits
Bits/(Pixel*Frame) : 0.387
Stream size : 71.9 GiB (94%)
Title : BDRemux.2160p.HDR by Silverok
Default : Yes
Forced : No
Color range : Limited
Color primaries : BT.2020
Transfer characteristics : PQ
Matrix coefficients : BT.2020 non-constant

Audio #1
ID : 2
Format : AC-3
Format/Info : Audio Coding 3
Commercial name : Dolby Digital
Codec ID : A_AC3
Duration : 2 h 13 min
Bit rate mode : Constant
Bit rate : 384 kb/s
Channel(s) : 6 channels
Channel layout : L R C LFE Ls Rs
Sampling rate : 48.0 kHz
Frame rate : 31.250 FPS (1536 SPF)
Bit depth : 16 bits
Compression mode : Lossy
Stream size : 367 MiB (0%)
Title : Профессиональный многоголосый (AlexFilm)
Language : Russian
Service kind : Complete Main
Default : Yes
Forced : No

Audio #2
ID : 3
Format : AC-3
Format/Info : Audio Coding 3
Commercial name : Dolby Digital
Codec ID : A_AC3
Duration : 2 h 13 min
Bit rate mode : Constant
Bit rate : 384 kb/s
Channel(s) : 6 channels
Channel layout : L R C LFE Ls Rs
Sampling rate : 48.0 kHz
Frame rate : 31.250 FPS (1536 SPF)
Bit depth : 16 bits
Compression mode : Lossy
Stream size : 367 MiB (0%)
Title : Любительский многоголосый (AniDUB)
Language : Russian
Service kind : Complete Main
Default : No
Forced : No

Audio #3
ID : 4
Format : AC-3
Format/Info : Audio Coding 3
Commercial name : Dolby Digital
Codec ID : A_AC3
Duration : 2 h 13 min
Bit rate mode : Constant
Bit rate : 384 kb/s
Channel(s) : 6 channels
Channel layout : L R C LFE Ls Rs
Sampling rate : 48.0 kHz
Frame rate : 31.250 FPS (1536 SPF)
Bit depth : 16 bits
Compression mode : Lossy
Stream size : 367 MiB (0%)
Title : Любительский одноголосый (PiratVoice)
Language : Russian
Service kind : Complete Main
Default : No
Forced : No

Audio #4
ID : 5
Format : DTS XLL
Format/Info : Digital Theater Systems
Commercial name : DTS-HD Master Audio
Codec ID : A_DTS
Duration : 2 h 13 min
Bit rate mode : Variable
Bit rate : 3 924 kb/s
Channel(s) : 6 channels
Channel layout : C L R Ls Rs LFE
Sampling rate : 48.0 kHz
Frame rate : 93.750 FPS (512 SPF)
Bit depth : 24 bits
Compression mode : Lossless
Stream size : 3.67 GiB (5%)
Language : Japanese
Default : No
Forced : No

Text #1
ID : 6
Format : UTF-8
Codec ID : S_TEXT/UTF8
Codec ID/Info : UTF-8 Plain Text
Duration : 1 h 18 min
Bit rate : 0 b/s
Count of elements : 9
Stream size : 154 Bytes (0%)
Title : Forced
Language : Russian
Default : Yes
Forced : No

Text #2
ID : 7
Format : UTF-8
Codec ID : S_TEXT/UTF8
Codec ID/Info : UTF-8 Plain Text
Duration : 2 h 6 min
Bit rate : 49 b/s
Count of elements : 1211
Stream size : 45.6 KiB (0%)
Title : Full
Language : Russian
Default : No
Forced : No

Text #3
ID : 8
Format : ASS
Codec ID : S_TEXT/ASS
Codec ID/Info : Advanced Sub Station Alpha
Duration : 2 h 6 min
Bit rate : 76 b/s
Count of elements : 1211
Compression mode : Lossless
Stream size : 70.7 KiB (0%)
Title : Full
Language : Russian
Default : No
Forced : No

Text #4
ID : 9
Format : UTF-8
Codec ID : S_TEXT/UTF8
Codec ID/Info : UTF-8 Plain Text
Duration : 2 h 6 min
Bit rate : 27 b/s
Count of elements : 1220
Stream size : 25.3 KiB (0%)
Title : Full
Language : English
Default : No
Forced : No

Text #5
ID : 10
Format : UTF-8
Codec ID : S_TEXT/UTF8
Codec ID/Info : UTF-8 Plain Text
Duration : 2 h 6 min
Bit rate : 11 b/s
Count of elements : 1228
Stream size : 10.6 KiB (0%)
Title : Full
Language : Japanese
Default : No
Forced : No

Menu
00:00:00.000 : en:00:00:00.000
00:06:42.276 : en:00:06:42.276
00:19:11.567 : en:00:19:11.567
00:26:41.433 : en:00:26:41.433
00:35:23.162 : en:00:35:23.162
00:47:11.328 : en:00:47:11.328
00:55:32.370 : en:00:55:32.370
01:04:24.819 : en:01:04:24.819
01:17:54.586 : en:01:17:54.586
01:25:32.585 : en:01:25:32.585
01:33:52.626 : en:01:33:52.626
01:49:45.203 : en:01:49:45.203
01:59:13.312 : en:01:59:13.312
02:08:04.676 : en:02:08:04.676
02:13:46.518 : en:02:13:46.518


Релиз от: | Silverok


_________________
Проголосуй за трекер Открытый торрент трекер - RUS-MEDIA.ORG

Проголосуй Открытый торрент трекер - RUS-MEDIA.ORG


Вернуться к началу
 Профиль Отправить личное сообщение  
 
   Похожие торренты   Автор   Торрент   Размер 
В этой теме нет новых непрочитанных сообщений. Варкрафт / Warcraft [фэнтези, боевик, приключения, 2016] UHD BDRemux 2160p, Dub [4K]

salma3

7 | 7

70.4 ГБ

В этой теме нет новых непрочитанных сообщений. Стальной рассвет / Steel Dawn [фантастика, боевик, приключения, 1987] BDRemux 1080p, Mvo

salma3

26 | 4

19.44 ГБ

В этой теме нет новых непрочитанных сообщений. Форма воды / The Shape of Water [Фэнтези, драма, приключения, 2017] BDRemux 2160p, Dub [iTunes] [4K]

salma3

1 | 5

48.49 ГБ

В этой теме нет новых непрочитанных сообщений. Легенда восьми самураев / Satomi hakken-den [Приключения, фэнтези, боевик, 1983] BDRemux 2160p, Avo [4K]

salma3

0 | 0

56.87 ГБ

В этой теме нет новых непрочитанных сообщений. Конан-варвар / Conan the Barbarian [Фэнтези, боевик, приключения, 2011] UHD BDRemux 2160p, Dub [4K] [Лицензия]

salma3

0 | 0

45.77 ГБ

В этой теме нет новых непрочитанных сообщений. Мумия / The Mummy [фэнтези, боевик, триллер, 2017] UHD BDRemux 2160p, Dub [4K] [Лицензия]

salma3

13 | 2

58.75 ГБ

В этой теме нет новых непрочитанных сообщений. Последний охотник на ведьм / The Last Witch Hunter [Фэнтези, боевик, приключения, 2015] UHD BDRemux 2160p, Dub [4K] [Лицензия]

salma3

7 | 14

56.18 ГБ


Начать новую тему Ответить на тему  [ 1 сообщение ] 




Для Мосгорсуда, Роскомнадзора и рекламодателей:: mosgorsud-torrent[собачка]yandex.ru
cron