Торрент файл
скачать торрент магнет ссылка Добавлен: 14 окт 2018, 11:25
Размер: 2.35 ГБ
Сидеров: 69
Личеров: 16
Статус: (salma3)
Автор

СообщениеДобавлено: 14 окт 2018, 11:25 

В сети
Супермодератор
Аватара пользователя
Дата регистрации:
15 фев 2012, 16:44
Возраст: 29
Спасибо: 7400 / 2147
Сообщения: 78350
Год выхода: 2005
Жанр: Триллер, драма, приключения
Режиссер: Стюарт Рэффил

В ролях: Билли Зейн, Келли Брук, Хуан Пабло Ди Паке, Тодд Коллинз, Гэбриэлль Джордан, Гэри Брокетт, Изабелль Константини, Рой Ривера, Мария Виктория Ди Паке, Саммер Дэвис

О фильме:
Молодожены Джек и Дженнифер решают провести медовый месяц на роскошной яхте. Спустя несколько дней, судно терпит крушение у берегов незнакомого острова. Спастись удается лишь хозяевам яхты и матросу по имени Мануэль. Несчастные оказываются в полной изоляции от большой земли.Приспособленный к жизни в экстремальных условиях, Мануэль берет на себя заботу об изнеженных богачах, добывая для них пищу и воду. Впечатлительной Дженнифер не под силу устоять перед обаянием красавца Мануэля, и довольно скоро между ними вспыхивает непреодолимая страсть.Ревность превращает Джека в монстра, ярость и жестокость которого не знает границ. Мужчины начинают настоящую войну за обладание красавицей, и кто знает, кому суждено выбраться с затерянного острова…



Страна: США, Великобритания, Люксембург
Продолжительность: 01:35:45
Перевод: Дублированный + профессиональный (двухголосый закадровый)
Субтитры: Русские, английские
Релиз от: Охрана (NNMCLUB)

Файл
Формат: MKV
Качество: WEB-DLRip-AVC
Видео: AVC/H.264, 1024x576, ~2675 Kbps
Аудио 1: Русский, AC3, 6 ch, 448 Kbps, 48.0 kHz (Dub, Кинокомпания UMP/GFS)
Аудио 2: Русский, AC3, 2 ch, 192 Kbps, 48.0 kHz (DVO, Рен-ТВ)
Аудио 3: Английский, AC3, 2 ch, 192 Kbps, 48.0 kHz (Оригинал)

Общее
Уникальный идентификатор : 195993604393653474530741865776487090360 (0x9372FEC2DF420EAB9704DA99D4D048B8)
Полное имя : F:DownloadsСекс ради выживания. 2005. NNMCLUB.mkv
Формат : Matroska
Версия формата : Version 4 / Version 2
Размер файла : 2,35 Гбайт
Продолжительность : 1 ч. 35 м.
Общий поток : 3508 Кбит/сек
Дата кодирования : UTC 2018-04-07 23:58:40
Программа кодирования : mkvmerge v7.9.0 ('Birds') 64bit
Библиотека кодирования : libebml v1.3.1 + libmatroska v1.4.2

Видео
Идентификатор : 1
Формат : AVC
Формат/Информация : Advanced Video Codec
Профиль формата : High@L4.1
Настройки формата : CABAC / 9 Ref Frames
Параметр CABAC формата : Да
Параметр RefFrames формата : 9 кадров
Идентификатор кодека : V_MPEG4/ISO/AVC
Продолжительность : 1 ч. 35 м.
Битрейт : 2675 Кбит/сек
Ширина : 1024 пикселя
Высота : 576 пикселей
Соотношение сторон : 16:9
Режим частоты кадров : Постоянный
Частота кадров : 23,976 (24000/1001) кадра/сек
Цветовое пространство : YUV
Субдискретизация насыщенности : 4:2:0
Битовая глубина : 8 бит
Тип развёртки : Прогрессивная
Бит/(Пиксели*Кадры) : 0.189
Размер потока : 1,79 Гбайт (76%)
Заголовок : Three
Библиотека кодирования : x264 core 146 r2538 121396c
Настройки программы : cabac=1 / ref=9 / deblock=1:-1:-1 / analyse=0x3:0x113 / me=umh / subme=10 / psy=1 / psy_rd=1.00:0.10 / mixed_ref=1 / me_range=32 / chroma_me=1 / trellis=2 / 8x8dct=1 / cqm=0 / deadzone=21,11 / fast_pskip=0 / chroma_qp_offset=-3 / threads=6 / lookahead_threads=1 / sliced_threads=0 / nr=0 / decimate=0 / interlaced=0 / bluray_compat=0 / constrained_intra=0 / bframes=7 / b_pyramid=2 / b_adapt=2 / b_bias=0 / direct=3 / weightb=1 / open_gop=0 / weightp=2 / keyint=250 / keyint_min=25 / scenecut=40 / intra_refresh=0 / rc_lookahead=60 / rc=2pass / mbtree=1 / bitrate=2675 / ratetol=1.0 / qcomp=0.60 / qpmin=0 / qpmax=69 / qpstep=4 / cplxblur=20.0 / qblur=0.5 / vbv_maxrate=14000 / vbv_bufsize=14000 / nal_hrd=none / filler=0 / ip_ratio=1.40 / aq=1:1.00
Язык : English
Default : Да
Forced : Нет

Аудио #1
Идентификатор : 2
Формат : AC-3
Формат/Информация : Audio Coding 3
Идентификатор кодека : A_AC3
Продолжительность : 1 ч. 35 м.
Вид битрейта : Постоянный
Битрейт : 448 Кбит/сек
Каналы : 6 каналов
Расположение каналов : Front: L C R, Side: L R, LFE
Частота : 48,0 КГц
Частота кадров : 31,250 кадров/сек (1536 SPF)
Битовая глубина : 16 бит
Метод сжатия : С потерями
Размер потока : 306 Мбайт (13%)
Заголовок : Дубляж
Язык : Russian
ServiceKind : Complete Main
Default : Да
Forced : Нет

Аудио #2
Идентификатор : 3
Формат : AC-3
Формат/Информация : Audio Coding 3
Идентификатор кодека : A_AC3
Продолжительность : 1 ч. 35 м.
Вид битрейта : Постоянный
Битрейт : 192 Кбит/сек
Каналы : 2 канала
Расположение каналов : Front: L R
Частота : 48,0 КГц
Частота кадров : 31,250 кадров/сек (1536 SPF)
Битовая глубина : 16 бит
Метод сжатия : С потерями
Размер потока : 131 Мбайт (5%)
Заголовок : Двуголосый закадровый
Язык : Russian
ServiceKind : Complete Main
Default : Нет
Forced : Нет

Аудио #3
Идентификатор : 4
Формат : AC-3
Формат/Информация : Audio Coding 3
Идентификатор кодека : A_AC3
Продолжительность : 1 ч. 35 м.
Вид битрейта : Постоянный
Битрейт : 192 Кбит/сек
Каналы : 2 канала
Расположение каналов : Front: L R
Частота : 48,0 КГц
Частота кадров : 31,250 кадров/сек (1536 SPF)
Битовая глубина : 16 бит
Метод сжатия : С потерями
Размер потока : 132 Мбайт (5%)
Заголовок : Оригинал
Язык : English
ServiceKind : Complete Main
Default : Нет
Forced : Нет

Текст #1
Идентификатор : 5
Формат : UTF-8
Идентификатор кодека : S_TEXT/UTF8
Идентификатор кодека/Информация : UTF-8 Plain Text
Продолжительность : 1 ч. 32 м.
Битрейт : 63 бит/сек
ElementCount : 992
Размер потока : 42,7 Кбайт (0%)
Заголовок : SRT
Язык : Russian
Default : Нет
Forced : Нет

Текст #2
Идентификатор : 6
Формат : UTF-8
Идентификатор кодека : S_TEXT/UTF8
Идентификатор кодека/Информация : UTF-8 Plain Text
Продолжительность : 1 ч. 29 м.
Битрейт : 46 бит/сек
ElementCount : 1212
Размер потока : 30,4 Кбайт (0%)
Заголовок : Full
Язык : English
Default : Нет
Forced : Нет

Текст #3
Идентификатор : 7
Формат : UTF-8
Идентификатор кодека : S_TEXT/UTF8
Идентификатор кодека/Информация : UTF-8 Plain Text
Продолжительность : 1 ч. 30 м.
Битрейт : 43 бит/сек
ElementCount : 1165
Размер потока : 28,8 Кбайт (0%)
Заголовок : SDH
Язык : English
Default : Нет
Forced : Нет


_________________
Проголосуй за трекер Открытый торрент трекер - RUS-MEDIA.ORG

Проголосуй Открытый торрент трекер - RUS-MEDIA.ORG


Вернуться к началу
 Профиль Отправить личное сообщение  
 
   Похожие торренты   Автор   Торрент   Размер 
В этой теме нет новых непрочитанных сообщений. Секс ради выживания / Survival Island / Three [Триллер, драма, приключения, 2005] WEB-DLRip 720p, Dub

salma3

0 | 0

6.92 ГБ

В этой теме нет новых непрочитанных сообщений. Секс ради выживания / Survival Island / Three [Триллер, драма, приключения, 2005] WEB-DL 1080p, Dub

salma3

170 | 175

10.87 ГБ

В этой теме нет новых непрочитанных сообщений. Нож для выживания / Survival Knife [ужасы, триллер, 2016] WEBRip, Avo

salma3

448 | 23

1.37 ГБ

В этой теме нет новых непрочитанных сообщений. Над глубиной: Хроника выживания / Cage Dive [ужасы, триллер, драма, 2017] WEB-DLRip, Dvo

salma3

1900 | 312

1.45 ГБ

В этой теме нет новых непрочитанных сообщений. Над глубиной: Хроника выживания / Cage Dive [Триллер, ужасы, драма, 2017] WEB-DLRip-AVC, Dub [iTunes]

salma3

300 | 75

744.8 МБ

В этой теме нет новых непрочитанных сообщений. Над глубиной: Хроника выживания / Cage Dive [Триллер, ужасы, драма, 2017] WEB-DLRip, Dub [iTunes]

salma3

2232 | 615

1.37 ГБ

В этой теме нет новых непрочитанных сообщений. Над глубиной: Хроника выживания / Cage Dive [Триллер, ужасы, драма, 2017] WEB-DLRip-AVC, Dub [iTunes]

salma3

247 | 62

2.51 ГБ


Начать новую тему Ответить на тему  [ 1 сообщение ] 




Для Мосгорсуда, Роскомнадзора и рекламодателей:: mosgorsud-torrent[собачка]yandex.ru
cron