Торрент файл
скачать торрент магнет ссылка Добавлен: 18 окт 2018, 16:51
Размер: 3.52 ГБ
Сидеров: 62
Личеров: 2
Статус: (salma3)
Автор

СообщениеДобавлено: 18 окт 2018, 16:51 

Не в сети
Супермодератор
Аватара пользователя
Дата регистрации:
15 фев 2012, 16:44
Возраст: 29
Спасибо: 7401 / 2147
Сообщения: 78594
Год выпуска: 2016
Жанр: Фэнтези, комедия, приключения
Выпущено: Великобритания, Blueprint Pictures
Режиссер: Джейми Магнус Стоун

В ролях: Адиль Ахтар, Мэтт Берри, Даниэль Бьелич, Джон Брэдли, Эндрю Бакан, Джилл Бьюкэнэн, Фиби Кэмпбелл, Колин Майкл Кармайкл, Элизабет Чан, Анна Чэнселлор

О фильме: В старые добрые времена магия была необходима - она могла сохранить королевство и прочистить забившуюся канализацию. Но теперь магия исчезает: сливной фильтр дешевле, чем заклинание, а волшебные ковры используются для доставки пиццы. Пятнадцатилетний подкидыш, Дженнифер Стрейндж работает в Казаме, агентстве по найму волшебников, но в дни, когда магия выдыхается, всё труднее оставаться на плаву. А потом начинаются видения, предсказывающие смерть последнего дракона мира от рук неизвестного Убийцы драконов. Если видения окажутся правдой, то для Казама и Дженнифер изменится всё.



Техданные
Качество: WEB-DLRip (1080p)
Видео: MPEG-4 AVC, 4 655 kb/s, 1920x1080, 25.000 FPS
Аудио: AAC, 2 ch, 317 Кбит/с
Продолжительность: 01:41:00
Перевод: Любительский двухголосый закадровый

Присутствует реклама!


General
Unique ID : 21925373458327687776214152436721488382 (0x107EAC5F4221643E4CC1CF567C1191FE)
Complete name : D:LakeFIlmsThe.Last.Dragonslayer.2016.1080p.WEB-DL.LakeFilms.mkv
Format : Matroska
Format version : Version 4
File size : 3.52 GiB
Duration : 1 h 41 min
Overall bit rate : 4 975 kb/s
Encoded date : UTC 2018-10-17 18:31:57
Writing application : mkvmerge v27.0.0 ('Metropolis') 64-bit
Writing library : libebml v1.3.6 + libmatroska v1.4.9

Video
ID : 1
Format : AVC
Format/Info : Advanced Video Codec
Format profile : Main@L4.1
Format settings : CABAC / 4 Ref Frames
Format settings, CABAC : Yes
Format settings, ReFrames : 4 frames
Codec ID : V_MPEG4/ISO/AVC
Duration : 1 h 41 min
Bit rate : 4 655 kb/s
Width : 1 920 pixels
Height : 1 080 pixels
Display aspect ratio : 16:9
Frame rate mode : Constant
Frame rate : 25.000 FPS
Color space : YUV
Chroma subsampling : 4:2:0
Bit depth : 8 bits
Scan type : Progressive
Bits/(Pixel*Frame) : 0.090
Stream size : 3.29 GiB (94%)
Language : English
Default : Yes
Forced : No
Color range : Limited
Color primaries : BT.709
Transfer characteristics : BT.709
Matrix coefficients : BT.709

Audio
ID : 2
Format : AAC LC
Format/Info : Advanced Audio Codec Low Complexity
Codec ID : A_AAC-2
Duration : 1 h 41 min
Bit rate : 317 kb/s
Channel(s) : 2 channels
Channel layout : L R
Sampling rate : 48.0 kHz
Frame rate : 46.875 FPS (1024 SPF)
Compression mode : Lossy
Stream size : 230 MiB (6%)
Language : English
Default : Yes
Forced : No


_________________
Проголосуй за трекер Открытый торрент трекер - RUS-MEDIA.ORG

Проголосуй Открытый торрент трекер - RUS-MEDIA.ORG


Вернуться к началу
 Профиль Отправить личное сообщение  
 
   Похожие торренты   Автор   Торрент   Размер 
В этой теме нет новых непрочитанных сообщений. Последний убийца драконов / The Last Dragonslayer [Фэнтези, комедия, приключения, 2016] WEB-DLRip, Dvo [LakeFilms]

salma3

0 | 0

1.69 ГБ

В этой теме нет новых непрочитанных сообщений. Последний убийца драконов / The Last Dragonslayer [Фэнтези, комедия, приключения, 2016] WEB-DLRip 720p, Dvo [LakeFilms]

salma3

0 | 0

2.24 ГБ

В этой теме нет новых непрочитанных сообщений. Последний убийца драконов / The Last Dragonslayer [фэнтези, комедия, приключения, 2016] HDTVRip, Mvo

salma3

838 | 64

1.37 ГБ

В этой теме нет новых непрочитанных сообщений. Последний убийца драконов / The Last Dragonslayer [фэнтези, комедия, приключения, 2016] HDTVRip, Mvo

salma3

86 | 21

745.82 МБ

В этой теме нет новых непрочитанных сообщений. Последний убийца драконов / The Last Dragonslayer [фэнтези, комедия, приключения, 2016] WEBDLRip, Mvo

salma3

28 | 3

1.46 ГБ

В этой теме нет новых непрочитанных сообщений. Последний акулий торнадо: Как раз во время / The Last Sharknado: It's About Time [Ужасы, фантастика, фэнтези, 2018] WEBRip 1080p, Dvo [LakeFilms]

salma3

59 | 9

2.52 ГБ

В этой теме нет новых непрочитанных сообщений. Последний акулий торнадо: Как раз во время / The Last Sharknado: It's About Time [Ужасы, фантастика, фэнтези, 2018] WEBRip, Dvo [LakeFilms]

salma3

0 | 0

1.02 ГБ


Начать новую тему Ответить на тему  [ 1 сообщение ] 




Для Мосгорсуда, Роскомнадзора и рекламодателей:: mosgorsud-torrent[собачка]yandex.ru
cron