Торрент файл
скачать торрент магнет ссылка Добавлен: 19 окт 2018, 16:38
Размер: 3.72 ГБ
Сидеров: 157
Личеров: 88
Статус: (salma3)
Автор

СообщениеДобавлено: 19 окт 2018, 16:38 

Не в сети
Супермодератор
Аватара пользователя
Дата регистрации:
15 фев 2012, 16:44
Возраст: 29
Спасибо: 7401 / 2147
Сообщения: 78470
Год выхода: 2018
Жанр: Триллер
Режиссер: Асаф Бернштейн

В ролях: Индиа Айсли, Джейсон Айзекс, Пенелопа Митчелл, Мира Сорвино, Харрисон Гилбертсон, Кристен Харрис, Адам Хертиг, Джон С. МакДональд, Коннор Питерсон, Кристина Сеговиа

О фильме:
18-летняя старшеклассница Мария нелюбима родителями и отвергнута сверстниками. Будучи изгоем, она доверяет все свои секреты и переживания своему отражению в зеркале, своему воображаемому злому близнецу, который поддерживает, поощряет и знает все ее тайны. Однажды она меняется местами со своим двойником, который начинает воплощать самые дикие и необузданные желания.



Страна: США
Продолжительность: 01:43:04
Перевод: Любительский одноголосый | Хихидок

Файл
Кодек: AVC
Качество: WEB-DL 1080p | AMZN
Видео: MPEG-4 AVC, 1916x800, 4594 Кбит/с, 23.976 кадр/с
Звук: Небольшая реклама в титрах
Аудио #1: Русский ( АС3, 2ch, 192 Кбит/с, 48.0 KHz) Любительский (одноголосый, закадровый) Хихикающий доктор
Аудио #2: Английский ( АС3, 6ch, 384 Кбит/с, 48.0 KHz)
Присутствует ненормативная лексика!
Субтитры: русские, английские
Источник: Look.Away.2018.1080p.WEB-DL.DD5.1.H264-FGT
General
Unique ID : 233195494973010690274402672103675570031 (0xAF6FD194203D77F8BBFB20BBDAD2A76F)
Complete name : Look.Away.2018.WEB-DL.1080p.mkv
Format : Matroska
Format version : Version 4
File size : 3.72 GiB
Duration : 1 h 43 min
Overall bit rate : 5 172 kb/s
Encoded date : UTC 2018-10-18 23:58:15
Writing application : mkvmerge v7.1.0 ('Good Love') 64bit built on Jul 27 2014 13:06:55
Writing library : libebml v1.3.0 + libmatroska v1.4.1

Video
ID : 1
Format : AVC
Format/Info : Advanced Video Codec
Format profile : High@L4
Format settings : CABAC / 5 Ref Frames
Format settings, CABAC : Yes
Format settings, ReFrames : 5 frames
Codec ID : V_MPEG4/ISO/AVC
Duration : 1 h 43 min
Bit rate : 4 594 kb/s
Width : 1 916 pixels
Height : 800 pixels
Display aspect ratio : 2.40:1
Frame rate mode : Constant
Frame rate : 23.976 (24000/1001) FPS
Color space : YUV
Chroma subsampling : 4:2:0
Bit depth : 8 bits
Scan type : Progressive
Bits/(Pixel*Frame) : 0.125
Stream size : 3.31 GiB (89%)
Language : English
Default : Yes
Forced : No
Color range : Limited
Color primaries : BT.709
Transfer characteristics : BT.709
Matrix coefficients : BT.709

Audio #1
ID : 2
Format : AC-3
Format/Info : Audio Coding 3
Commercial name : Dolby Digital
Codec ID : A_AC3
Duration : 1 h 43 min
Bit rate mode : Constant
Bit rate : 192 kb/s
Channel(s) : 2 channels
Channel layout : L R
Sampling rate : 48.0 kHz
Frame rate : 31.250 FPS (1536 SPF)
Bit depth : 16 bits
Compression mode : Lossy
Stream size : 142 MiB (4%)
Language : Russian
Service kind : Complete Main
Default : Yes
Forced : No

Audio #2
ID : 3
Format : AC-3
Format/Info : Audio Coding 3
Commercial name : Dolby Digital
Codec ID : A_AC3
Duration : 1 h 43 min
Bit rate mode : Constant
Bit rate : 384 kb/s
Channel(s) : 6 channels
Channel layout : L R C LFE Ls Rs
Sampling rate : 48.0 kHz
Frame rate : 31.250 FPS (1536 SPF)
Bit depth : 16 bits
Compression mode : Lossy
Stream size : 283 MiB (7%)
Language : English
Service kind : Complete Main
Default : No
Forced : No

Text #1
ID : 4
Format : UTF-8
Codec ID : S_TEXT/UTF8
Codec ID/Info : UTF-8 Plain Text
Duration : 1 h 35 min
Bit rate : 47 b/s
Count of elements : 774
Stream size : 32.9 KiB (0%)
Language : Russian
Default : No
Forced : No

Text #2
ID : 5
Format : UTF-8
Codec ID : S_TEXT/UTF8
Codec ID/Info : UTF-8 Plain Text
Duration : 1 h 39 min
Bit rate : 30 b/s
Count of elements : 802
Stream size : 22.5 KiB (0%)
Language : English
Default : No
Forced : No

Menu
00:00:00.000 : en:01
00:06:25.760 : en:02
00:13:29.934 : en:03
00:19:21.827 : en:04
00:25:54.761 : en:05
00:33:32.010 : en:06
00:38:58.753 : en:07
00:46:36.543 : en:08
00:52:28.687 : en:09
01:00:02.348 : en:10
01:06:32.655 : en:11
01:12:22.921 : en:12
01:21:05.402 : en:13
01:24:40.116 : en:14
01:31:12.758 : en:15
01:39:53.946 : en:16


_________________
Проголосуй за трекер Открытый торрент трекер - RUS-MEDIA.ORG

Проголосуй Открытый торрент трекер - RUS-MEDIA.ORG


Вернуться к началу
 Профиль Отправить личное сообщение  
 
   Похожие торренты   Автор   Торрент   Размер 
В этой теме нет новых непрочитанных сообщений. Тёмное зеркало / Look Away [Триллер, 2018] WEBRip, Dvo

salma3

0 | 0

1.33 ГБ

В этой теме нет новых непрочитанных сообщений. Тёмное зеркало / Look Away [Триллер, 2018] WEBRip 720p, Dvo

salma3

0 | 0

2.28 ГБ

В этой теме нет новых непрочитанных сообщений. Зеркало, зеркало / Mirror Mirror [ужасы, триллер, 1990] DVDRip, Dvo [НТВ]

salma3

0 | 0

1.46 ГБ

В этой теме нет новых непрочитанных сообщений. Зеркало / Looking Glass [Триллер, 2018] WEBRip, Mvo

salma3

0 | 0

699.14 МБ

В этой теме нет новых непрочитанных сообщений. Зеркало / Looking Glass [триллер, 2018] WEBRip, Dvo

salma3

0 | 0

1.49 ГБ

В этой теме нет новых непрочитанных сообщений. Зеркало / Looking Glass [триллер, 2018] BDRip 720p, Mvo

salma3

0 | 0

3.35 ГБ

В этой теме нет новых непрочитанных сообщений. Зеркало / Looking Glass [Триллер, 2018] WEBRip 720p, Mvo

salma3

0 | 1

3.51 ГБ


Начать новую тему Ответить на тему  [ 1 сообщение ] 




Для Мосгорсуда, Роскомнадзора и рекламодателей:: mosgorsud-torrent[собачка]yandex.ru
cron